get paid to paste

Metsurin Tarina (The Woodcutter Story) 2022...

General
Unique ID                                : 144895691827409430487391204434912398305 (0x6D01E529E1AB4235ECC3E524327ECBE1)
Complete name                            : Metsurin Tarina (The Woodcutter Story) 2022 BDRIP 1080p x264-ITU.mkv
Format                                   : Matroska
Format version                           : Version 4 / Version 2
File size                                : 2.85 GiB
Duration                                 : 1h 39mn
Overall bit rate                         : 4 097 Kbps
Movie name                               : www.dboxasian.com
Encoded date                             : UTC 2023-12-01 01:44:17 / UTC 
Writing application                      : mkvmerge v68.0.0.1 ('The Curtain') 64-bit
Writing library                          : libebml v1.4.2 + libmatroska v1.6.4 / Lavf55.12.0

Video
ID                                       : 1
Format                                   : AVC
Format/Info                              : Advanced Video Codec
Format profile                           : [email protected]
Format settings, CABAC                   : Yes
Format settings, ReFrames                : 5 frames
Codec ID                                 : V_MPEG4/ISO/AVC
Duration                                 : 1h 39mn
Bit rate                                 : 3 456 Kbps
Width                                    : 1 920 pixels
Height                                   : 804 pixels
Display aspect ratio                     : 2.40:1
Frame rate mode                          : Constant
Frame rate                               : 23.976 (24000/1001) fps
Color space                              : YUV
Chroma subsampling                       : 4:2:0
Bit depth                                : 8 bits
Scan type                                : Progressive
Bits/(Pixel*Frame)                       : 0.093
Stream size                              : 2.35 GiB (82%)
Writing library                          : x264 core 142 r2479 dd79a61
Encoding settings                        : cabac=1 / ref=5 / deblock=1:-1:-1 / analyse=0x3:0x133 / me=umh / subme=9 / psy=1 / psy_rd=1.00:0.15 / mixed_ref=1 / me_range=16 / chroma_me=1 / trellis=2 / 8x8dct=1 / cqm=0 / deadzone=21,11 / fast_pskip=1 / chroma_qp_offset=-3 / threads=72 / lookahead_threads=6 / sliced_threads=0 / nr=0 / decimate=1 / interlaced=0 / bluray_compat=0 / constrained_intra=0 / bframes=3 / b_pyramid=2 / b_adapt=2 / b_bias=0 / direct=3 / weightb=1 / open_gop=0 / weightp=2 / keyint=240 / keyint_min=24 / scenecut=40 / intra_refresh=0 / rc_lookahead=60 / rc=2pass / mbtree=1 / bitrate=3456 / ratetol=1.0 / qcomp=0.60 / qpmin=0 / qpmax=69 / qpstep=4 / cplxblur=20.0 / qblur=0.5 / vbv_maxrate=62500 / vbv_bufsize=78125 / nal_hrd=none / filler=0 / ip_ratio=1.40 / aq=1:1.00
Default                                  : Yes
Forced                                   : No
Color range                              : Limited
Color primaries                          : BT.709
Transfer characteristics                 : BT.709
Matrix coefficients                      : BT.709
Statistics Tags Issue                    : mkvmerge v68.0.0.1 ('The Curtain') 64-bit 2023-12-01 01:44:17 / mkvmerge v68.0.0.1 ('The Curtain') 64-bit 2023-12-01 01:44:17 / UTC 
FromStats_BitRate                        : 3455120
FromStats_Duration                       : 01:39:42.310000000
FromStats_FrameCount                     : 143432
FromStats_StreamSize                     : 2583700400

Audio
ID                                       : 2
Format                                   : AC-3
Format/Info                              : Audio Coding 3
Mode extension                           : CM (complete main)
Format settings, Endianness              : Big
Codec ID                                 : A_AC3
Duration                                 : 1h 39mn
Bit rate mode                            : Constant
Bit rate                                 : 640 Kbps
Channel(s)                               : 6 channels
Channel positions                        : Front: L C R, Side: L R, LFE
Sampling rate                            : 48.0 KHz
Frame rate                               : 31.250 fps (1536 spf)
Compression mode                         : Lossy
Delay relative to video                  : -5ms
Stream size                              : 456 MiB (16%)
Title                                    : Surround
Language                                 : Finnish
Default                                  : Yes
Forced                                   : No
Statistics Tags Issue                    : mkvmerge v68.0.0.1 ('The Curtain') 64-bit 2023-12-01 01:44:17 / mkvmerge v68.0.0.1 ('The Curtain') 64-bit 2023-12-01 01:44:17 / UTC 
FromStats_BitRate                        : 640000
FromStats_Duration                       : 01:39:41.344000000
FromStats_FrameCount                     : 186917
FromStats_StreamSize                     : 478507520

Text #1
ID                                       : 3
Format                                   : ASS
Codec ID                                 : S_TEXT/ASS
Codec ID/Info                            : Advanced Sub Station Alpha
Compression mode                         : Lossless
Language                                 : Russian
Default                                  : No
Forced                                   : No
Statistics Tags Issue                    : mkvmerge v68.0.0.1 ('The Curtain') 64-bit 2023-12-01 01:44:17 / mkvmerge v68.0.0.1 ('The Curtain') 64-bit 2023-12-01 01:44:17 / UTC 
FromStats_BitRate                        : 48
FromStats_Duration                       : 01:31:29.740000000
FromStats_FrameCount                     : 425
FromStats_StreamSize                     : 33169

Text #2
ID                                       : 4
Format                                   : ASS
Codec ID                                 : S_TEXT/ASS
Codec ID/Info                            : Advanced Sub Station Alpha
Compression mode                         : Lossless
Language                                 : Russian
Default                                  : No
Forced                                   : No
Statistics Tags Issue                    : mkvmerge v68.0.0.1 ('The Curtain') 64-bit 2023-12-01 01:44:17 / mkvmerge v68.0.0.1 ('The Curtain') 64-bit 2023-12-01 01:44:17 / UTC 
FromStats_BitRate                        : 48
FromStats_Duration                       : 01:31:29.740000000
FromStats_FrameCount                     : 425
FromStats_StreamSize                     : 33169

Text #3
ID                                       : 5
Format                                   : ASS
Codec ID                                 : S_TEXT/ASS
Codec ID/Info                            : Advanced Sub Station Alpha
Compression mode                         : Lossless
Language                                 : English
Default                                  : No
Forced                                   : No
Statistics Tags Issue                    : mkvmerge v68.0.0.1 ('The Curtain') 64-bit 2023-12-01 01:44:17 / mkvmerge v68.0.0.1 ('The Curtain') 64-bit 2023-12-01 01:44:17 / UTC 
FromStats_BitRate                        : 33
FromStats_Duration                       : 01:30:57.620000000
FromStats_FrameCount                     : 424
FromStats_StreamSize                     : 22803

Text #4
ID                                       : 6
Format                                   : ASS
Codec ID                                 : S_TEXT/ASS
Codec ID/Info                            : Advanced Sub Station Alpha
Compression mode                         : Lossless
Language                                 : English
Default                                  : No
Forced                                   : No
Statistics Tags Issue                    : mkvmerge v68.0.0.1 ('The Curtain') 64-bit 2023-12-01 01:44:17 / mkvmerge v68.0.0.1 ('The Curtain') 64-bit 2023-12-01 01:44:17 / UTC 
FromStats_BitRate                        : 33
FromStats_Duration                       : 01:30:57.620000000
FromStats_FrameCount                     : 424
FromStats_StreamSize                     : 22835

Text #5
ID                                       : 7
Format                                   : ASS
Codec ID                                 : S_TEXT/ASS
Codec ID/Info                            : Advanced Sub Station Alpha
Compression mode                         : Lossless
Language                                 : Finnish
Default                                  : No
Forced                                   : No
Statistics Tags Issue                    : mkvmerge v68.0.0.1 ('The Curtain') 64-bit 2023-12-01 01:44:17 / mkvmerge v68.0.0.1 ('The Curtain') 64-bit 2023-12-01 01:44:17 / UTC 
FromStats_BitRate                        : 56
FromStats_Duration                       : 01:31:32.658000000
FromStats_FrameCount                     : 706
FromStats_StreamSize                     : 39111

Text #6
ID                                       : 8
Format                                   : ASS
Codec ID                                 : S_TEXT/ASS
Codec ID/Info                            : Advanced Sub Station Alpha
Compression mode                         : Lossless
Language                                 : Swedish
Default                                  : No
Forced                                   : No
Statistics Tags Issue                    : mkvmerge v68.0.0.1 ('The Curtain') 64-bit 2023-12-01 01:44:17 / mkvmerge v68.0.0.1 ('The Curtain') 64-bit 2023-12-01 01:44:17 / UTC 
FromStats_BitRate                        : 34
FromStats_Duration                       : 01:29:01.162000000
FromStats_FrameCount                     : 431
FromStats_StreamSize                     : 23241

Menu
00:00:00.000                             : :Chapter 1
00:06:47.740                             : :Chapter 2
00:14:31.078                             : :Chapter 3
00:22:44.655                             : :Chapter 4
00:30:17.982                             : :Chapter 5
00:39:17.396                             : :Chapter 6
00:47:25.342                             : :Chapter 7
00:57:58.683                             : :Chapter 8
01:07:43.059                             : :Chapter 9
01:21:24.671                             : :Chapter 10
01:28:13.496                             : :Chapter 11
01:32:28.417                             : :Chapter 12

Pasted: Dec 1, 2023, 1:51:37 am
Views: 4