get paid to paste

General
Unique ID                   : 176841904642001298415589597384645624717 (0x850A830FA15EBE058D0518FB82A9438D)
Complete name               : Vietnamese Horror Story 2022 1080p Blu-ray REMUX AVC DTS-HD MA 5.1-3CT.mkv
Format                      : Matroska
Format version              : Version 4
File size                   : 21.7 GiB
Duration                    : 1 h 47 min
Overall bit rate mode       : Variable
Overall bit rate            : 29.0 Mb/s
Movie name                  : Vietnamese Horror Story 2022 1080p Blu-ray REMUX AVC DTS-HD MA 5.1-3CT
Encoded date                : UTC 2022-10-02 18:04:02
Writing application         : mkvmerge v70.0.0 ('Caught A Lite Sneeze') 64-bit
Writing library             : libebml v1.4.2 + libmatroska v1.6.4
Cover                       : Yes
Attachments                 : cover.jpg

Video
ID                          : 1
ID in the original source m : 4113 (0x1011)
Format                      : AVC
Format/Info                 : Advanced Video Codec
Format profile              : [email protected]
Format settings             : CABAC / 4 Ref Frames
Format settings, CABAC      : Yes
Format settings, Reference  : 4 frames
Format settings, GOP        : M=3, N=24
Codec ID                    : V_MPEG4/ISO/AVC
Duration                    : 1 h 47 min
Bit rate mode               : Variable
Bit rate                    : 23.1 Mb/s
Maximum bit rate            : 29.0 Mb/s
Width                       : 1 920 pixels
Height                      : 1 080 pixels
Display aspect ratio        : 16:9
Frame rate mode             : Constant
Frame rate                  : 24.000 FPS
Standard                    : NTSC
Color space                 : YUV
Chroma subsampling          : 4:2:0
Bit depth                   : 8 bits
Scan type                   : Progressive
Bits/(Pixel*Frame)          : 0.464
Stream size                 : 17.3 GiB (80%)
Language                    : Vietnamese
Default                     : Yes
Forced                      : No
Color range                 : Limited
Color primaries             : BT.709
Transfer characteristics    : BT.709
Matrix coefficients         : BT.709
Original source medium      : Blu-ray

Audio #1
ID                          : 2
ID in the original source m : 4352 (0x1100)
Format                      : DTS ES XLL
Format/Info                 : Digital Theater Systems
Commercial name             : DTS-HD Master Audio
Codec ID                    : A_DTS
Duration                    : 1 h 47 min
Bit rate mode               : Variable
Bit rate                    : 3 731 kb/s
Channel(s)                  : 6 channels
Channel(s)_Original         : 7 channels
ChannelLayout_Original      : C L R Ls Rs LFE Cs
Sampling rate               : 48.0 kHz
Frame rate                  : 93.750 FPS (512 SPF)
Bit depth                   : 24 bits
Compression mode            : Lossless
Stream size                 : 2.79 GiB (13%)
Title                       : Surround 5.1
Language                    : Vietnamese
Default                     : Yes
Forced                      : No
Original source medium      : Blu-ray

Audio #2
ID                          : 3
ID in the original source m : 4352 (0x1100)
Format                      : DTS ES
Format/Info                 : Digital Theater Systems
Commercial name             : DTS-ES Matrix
Codec ID                    : A_DTS
Duration                    : 1 h 47 min
Bit rate mode               : Constant
Bit rate                    : 1 536 kb/s
Channel(s)                  : 6 channels
Channel(s)_Original         : 7 channels
ChannelLayout_Original      : C L R Ls Rs Cs LFE
Sampling rate               : 48.0 kHz
Frame rate                  : 93.750 FPS (512 SPF)
Bit depth                   : 24 bits
Compression mode            : Lossy
Stream size                 : 1.13 GiB (5%)
Title                       : Surround 5.1
Language                    : Vietnamese
Default                     : No
Forced                      : No
Original source medium      : Blu-ray

Audio #3
ID                          : 4
ID in the original source m : 4353 (0x1101)
Format                      : AC-3
Format/Info                 : Audio Coding 3
Commercial name             : Dolby Digital
Format settings             : Dolby Surround EX
Codec ID                    : A_AC3
Duration                    : 1 h 47 min
Bit rate mode               : Constant
Bit rate                    : 640 kb/s
Channel(s)                  : 6 channels
Channel layout              : L R C LFE Ls Rs
Sampling rate               : 48.0 kHz
Frame rate                  : 31.250 FPS (1536 SPF)
Compression mode            : Lossy
Stream size                 : 491 MiB (2%)
Title                       : Surround 5.1
Language                    : Vietnamese
Service kind                : Complete Main
Default                     : No
Forced                      : No
Original source medium      : Blu-ray

Text
ID                          : 5
ID in the original source m : 4609 (0x1201)
Format                      : PGS
Muxing mode                 : zlib
Codec ID                    : S_HDMV/PGS
Codec ID/Info               : Picture based subtitle format used on BDs/HD-DVDs
Duration                    : 1 h 41 min
Bit rate                    : 21.1 kb/s
Count of elements           : 1341
Stream size                 : 15.3 MiB (0%)
Language                    : English
Default                     : No
Forced                      : No
Original source medium      : Blu-ray

Menu
00:00:00.000                : en:Chapter 01
00:11:30.250                : en:Chapter 02
00:17:47.625                : en:Chapter 03
00:25:34.708                : en:Chapter 04
00:34:48.333                : en:Chapter 05
00:46:36.458                : en:Chapter 06
00:52:55.333                : en:Chapter 07
01:00:23.750                : en:Chapter 08
01:10:36.125                : en:Chapter 09
01:21:14.791                : en:Chapter 10
01:28:37.291                : en:Chapter 11
01:42:21.416                : en:Chapter 12

Pasted: Oct 6, 2022, 5:47:19 pm
Views: 11