get paid to paste

乐游原.Wonderland.of.Love.S01.2023.1080p.WEB-DL.H264.AAC-OurTV

General
Unique ID                                : 304372124540979432104493191020142271368 (0xE4FBF05B07F1CB4765883DB96B9E1B88)
Complete name                            : \乐游原.Wonderland.of.Love.S01E01.2023.1080p.WEB-DL.H264.AAC-OurTV.mkv
Format                                   : Matroska
Format version                           : Version 4 / Version 2
File size                                : 546 MiB
Duration                                 : 41mn 21s
Overall bit rate                         : 1 845 Kbps
Encoded date                             : UTC 2023-11-06 14:05:42
Writing application                      : mkvmerge v70.0.0 ('OurTV Media Platform') 64-bit
Writing library                          : libebml v1.4.2 + libmatroska v1.6.4

Video
ID                                       : 1
Format                                   : AVC
Format/Info                              : Advanced Video Codec
Format profile                           : High@L4
Format settings, CABAC                   : Yes
Format settings, ReFrames                : 4 frames
Codec ID                                 : V_MPEG4/ISO/AVC
Duration                                 : 41mn 21s
Bit rate                                 : 1 749 Kbps
Width                                    : 1 920 pixels
Height                                   : 816 pixels
Display aspect ratio                     : 2.35:1
Frame rate mode                          : Constant
Frame rate                               : 25.000 fps
Color space                              : YUV
Chroma subsampling                       : 4:2:0
Bit depth                                : 8 bits
Scan type                                : Progressive
Bits/(Pixel*Frame)                       : 0.045
Stream size                              : 518 MiB (95%)
Default                                  : Yes
Forced                                   : No
Color range                              : Limited
Color primaries                          : BT.709
Transfer characteristics                 : BT.709
Matrix coefficients                      : BT.709

Audio
ID                                       : 2
Format                                   : AAC
Format/Info                              : Advanced Audio Codec
Format profile                           : LC
Codec ID                                 : A_AAC
Duration                                 : 41mn 21s
Bit rate                                 : 93.4 Kbps
Channel(s)                               : 2 channels
Channel positions                        : Front: L R
Sampling rate                            : 48.0 KHz
Frame rate                               : 46.875 fps (1024 spf)
Compression mode                         : Lossy
Delay relative to video                  : -42ms
Stream size                              : 27.6 MiB (5%)
Language                                 : Chinese
Default                                  : Yes
Forced                                   : No

Text #1
ID                                       : 3
Format                                   : UTF-8
Codec ID                                 : S_TEXT/UTF8
Codec ID/Info                            : UTF-8 Plain Text
Duration                                 : 36mn 52s
Bit rate                                 : 48 bps
Count of elements                        : 772
Stream size                              : 13.1 KiB (0%)
Title                                    : 简体中文
Language                                 : Chinese
Default                                  : Yes
Forced                                   : No

Text #2
ID                                       : 4
Format                                   : UTF-8
Codec ID                                 : S_TEXT/UTF8
Codec ID/Info                            : UTF-8 Plain Text
Duration                                 : 36mn 52s
Bit rate                                 : 48 bps
Count of elements                        : 772
Stream size                              : 13.1 KiB (0%)
Title                                    : 繁体中文
Language                                 : Chinese
Default                                  : No
Forced                                   : No

Text #3
ID                                       : 5
Format                                   : UTF-8
Codec ID                                 : S_TEXT/UTF8
Codec ID/Info                            : UTF-8 Plain Text
Duration                                 : 40mn 54s
Bit rate                                 : 69 bps
Count of elements                        : 783
Stream size                              : 20.7 KiB (0%)
Title                                    : 英语
Language                                 : English
Default                                  : No
Forced                                   : No

Pasted: Dec 1, 2023, 2:05:52 am
Views: 2