get paid to paste

Nhà Bà Nữ 2023 1080p WEB-DL H.264 DD+5.1-3cTWeB

General
Unique ID                   : 50518233859576726910915959581189764340 (0x2601753B1505C7CAB9CD9ABE30A674F4)
Complete name               : C:\Users\Nakta\Videos\The House of No Man 2023 1080p WEB-DL H.264 DD+5.1-3cTWeB.mkv
Format                      : Matroska
Format version              : Version 4
File size                   : 4.56 GiB
Duration                    : 1 h 43 min
Overall bit rate            : 6 326 kb/s
Movie name                  : www.dwba.xyz
Encoded date                : UTC 2023-05-08 07:38:06
Writing application         : mkvmerge v52.0.0 ('Secret For The Mad') 64-bit
Writing library             : libebml v1.4.1 + libmatroska v1.6.2
Cover                       : Yes
Attachments                 : cover.jpg

Video
ID                          : 1
Format                      : AVC
Format/Info                 : Advanced Video Codec
Format profile              : [email protected]
Format settings             : CABAC / 4 Ref Frames
Format settings, CABAC      : Yes
Format settings, Reference  : 4 frames
Codec ID                    : V_MPEG4/ISO/AVC
Duration                    : 1 h 43 min
Bit rate                    : 5 684 kb/s
Width                       : 1 920 pixels
Height                      : 1 080 pixels
Display aspect ratio        : 16:9
Frame rate mode             : Constant
Frame rate                  : 23.976 (24000/1001) FPS
Color space                 : YUV
Chroma subsampling          : 4:2:0
Bit depth                   : 8 bits
Scan type                   : Progressive
Bits/(Pixel*Frame)          : 0.114
Stream size                 : 4.10 GiB (90%)
Title                       : 3cTWeB
Language                    : Vietnamese
Default                     : Yes
Forced                      : No
Color range                 : Limited
Color primaries             : BT.709
Transfer characteristics    : BT.709
Matrix coefficients         : BT.709

Audio
ID                          : 2
Format                      : E-AC-3
Format/Info                 : Enhanced AC-3
Commercial name             : Dolby Digital Plus
Codec ID                    : A_EAC3
Duration                    : 1 h 43 min
Bit rate mode               : Constant
Bit rate                    : 640 kb/s
Channel(s)                  : 6 channels
Channel layout              : L R C LFE Ls Rs
Sampling rate               : 48.0 kHz
Frame rate                  : 31.250 FPS (1536 SPF)
Compression mode            : Lossy
Stream size                 : 473 MiB (10%)
Title                       : 3cTWeB
Language                    : Vietnamese
Service kind                : Complete Main
Default                     : Yes
Forced                      : No

Text
ID                          : 3
Format                      : UTF-8
Codec ID                    : S_TEXT/UTF8
Codec ID/Info               : UTF-8 Plain Text
Duration                    : 1 h 37 min
Bit rate                    : 70 b/s
Count of elements           : 1760
Stream size                 : 50.0 KiB (0%)
Title                       : English | 3cTWeB
Language                    : English
Default                     : Yes
Forced                      : No

Pasted: May 8, 2023, 7:32:07 am
Views: 6