get paid to paste

SF8.S01.1080p.WEB-DL.AAC2.0.H.264-PandaMoon

General
Unique ID                                : 119374281225352691937886280249643222341 (0x59CEA678C2B8A17D52BF0B4A1A51C545)
Complete name                            : \SF8.S01E01.1080p.WEB-DL.AAC2.0.H.264-PandaMoon.mkv
Format                                   : Matroska
Format version                           : Version 4 / Version 2
File size                                : 3.71 GiB
Duration                                 : 52mn 52s
Overall bit rate                         : 10.0 Mbps
Encoded date                             : UTC 2023-12-09 03:44:30
Writing application                      : mkvmerge v66.0.0 ('Josie') 64-bit
Writing library                          : libebml v1.4.2 + libmatroska v1.6.3

Video
ID                                       : 1
Format                                   : AVC
Format/Info                              : Advanced Video Codec
Format profile                           : High@L4
Format settings, CABAC                   : Yes
Format settings, ReFrames                : 3 frames
Format settings, GOP                     : M=1, N=60
Codec ID                                 : V_MPEG4/ISO/AVC
Duration                                 : 52mn 31s
Bit rate mode                            : Constant
Bit rate                                 : 10 000 Kbps
Width                                    : 1 920 pixels
Height                                   : 1 080 pixels
Display aspect ratio                     : 16:9
Frame rate mode                          : Constant
Frame rate                               : 29.970 (30000/1001) fps
Color space                              : YUV
Chroma subsampling                       : 4:2:0
Bit depth                                : 8 bits
Scan type                                : Progressive
Bits/(Pixel*Frame)                       : 0.161
Stream size                              : 3.61 GiB (97%)
Default                                  : Yes
Forced                                   : No

Audio
ID                                       : 2
Format                                   : AAC
Format/Info                              : Advanced Audio Codec
Format profile                           : LC
Codec ID                                 : A_AAC
Duration                                 : 52mn 30s
Bit rate                                 : 256 Kbps
Channel(s)                               : 2 channels
Channel positions                        : Front: L R
Sampling rate                            : 48.0 KHz
Frame rate                               : 46.875 fps (1024 spf)
Compression mode                         : Lossy
Stream size                              : 96.2 MiB (3%)
Language                                 : Korean
Default                                  : Yes
Forced                                   : No

Text #1
ID                                       : 3
Format                                   : UTF-8
Codec ID                                 : S_TEXT/UTF8
Codec ID/Info                            : UTF-8 Plain Text
Duration                                 : 52mn 36s
Bit rate                                 : 53 bps
Count of elements                        : 672
Stream size                              : 20.5 KiB (0%)
Title                                    : English
Language                                 : English
Default                                  : No
Forced                                   : No

Text #2
ID                                       : 4
Format                                   : UTF-8
Codec ID                                 : S_TEXT/UTF8
Codec ID/Info                            : UTF-8 Plain Text
Duration                                 : 52mn 14s
Bit rate                                 : 52 bps
Count of elements                        : 661
Stream size                              : 20.1 KiB (0%)
Title                                    : Indonesian
Language                                 : Indonesian
Default                                  : No
Forced                                   : No

Text #3
ID                                       : 5
Format                                   : UTF-8
Codec ID                                 : S_TEXT/UTF8
Codec ID/Info                            : UTF-8 Plain Text
Duration                                 : 52mn 14s
Bit rate                                 : 58 bps
Count of elements                        : 686
Stream size                              : 22.5 KiB (0%)
Title                                    : Malay
Language                                 : Malay
Default                                  : No
Forced                                   : No

Text #4
ID                                       : 6
Format                                   : UTF-8
Codec ID                                 : S_TEXT/UTF8
Codec ID/Info                            : UTF-8 Plain Text
Duration                                 : 51mn 50s
Bit rate                                 : 40 bps
Count of elements                        : 721
Stream size                              : 15.3 KiB (0%)
Title                                    : Chinese (China)
Language                                 : Chinese
Default                                  : No
Forced                                   : No

Pasted: Dec 9, 2023, 9:12:45 am
Views: 15