get paid to paste

Nine (1983)\[Orphan] Nine - Original-ban...

General
Unique ID                      : 208892367265149066416937177902125624049 (0x9D2734DEF3E607FC8726C34E304B2AF1)
Complete name                  : Nine (1983)\[Orphan] Nine - Original-ban (720p) [9CA06336].mkv
Format                         : Matroska
Format version                 : Version 4
File size                      : 1.97 GiB
Duration                       : 1 h 10 min
Overall bit rate               : 3 966 kb/s
Movie name                     : [Orphan] Nine - Original-ban
Encoded date                   : UTC 2021-01-29 01:30:22
Writing application            : mkvmerge v7.8.0 ('River Man') 32bit built on Mar 27 2015 16:18:02
Writing library                : libebml v1.3.1 + libmatroska v1.4.2
Attachments                    : 20THBOLD.TTF / akbar.TTF / antrf.ttf / ARABOLIC.TTF / Beauregard Display SSi.ttf / BGM.TTF / BOLSTC.TTF / cac-moose.ttf / eighty-percent-caps.regular.ttf / flatb__r.ttf / FOT Rodin Pro UB.ttf / FOT-ComicReggaeStd-B(c).otf / FOT-OedKtrStd-E(c).otf / FOT-RodinPro-B(c).ttf / FOT-RodinPro-EB(c).ttf / FOT-SeuratPro-B(c).ttf / FOT-SlumpStd-DB(c).otf / KGTurningTables.ttf / KozMinPro-Bold.ttf / KozMinPro-Regular.ttf / Kozuka Mincho Pro H.ttf / SoulEaterBold.ttf / StoneSansStd-Semibold.otf / StoneSansStd-SemiboldItalic.otf

Video
ID                             : 1
Format                         : AVC
Format/Info                    : Advanced Video Codec
Format profile                 : High 10@L5
Format settings                : CABAC / 16 Ref Frames
Format settings, CABAC         : Yes
Format settings, Reference fra : 16 frames
Codec ID                       : V_MPEG4/ISO/AVC
Duration                       : 1 h 10 min
Bit rate                       : 3 832 kb/s
Width                          : 1 280 pixels
Height                         : 720 pixels
Display aspect ratio           : 16:9
Frame rate mode                : Constant
Frame rate                     : 23.976 (24000/1001) FPS
Color space                    : YUV
Chroma subsampling             : 4:2:0
Bit depth                      : 10 bits
Scan type                      : Progressive
Bits/(Pixel*Frame)             : 0.173
Stream size                    : 1.90 GiB (97%)
Title                          : Video
Writing library                : x264 core 161 r3018 db0d417
Encoding settings              : cabac=1 / ref=16 / deblock=1:-1:-1 / analyse=0x3:0x133 / me=umh / subme=10 / psy=1 / psy_rd=0.90:0.00 / mixed_ref=1 / me_range=24 / chroma_me=1 / trellis=2 / 8x8dct=1 / cqm=0 / deadzone=21,11 / fast_pskip=0 / chroma_qp_offset=-2 / threads=12 / lookahead_threads=3 / sliced_threads=0 / nr=0 / decimate=0 / interlaced=0 / bluray_compat=0 / constrained_intra=0 / bframes=16 / b_pyramid=2 / b_adapt=2 / b_bias=0 / direct=3 / weightb=1 / open_gop=0 / weightp=2 / keyint=240 / keyint_min=23 / scenecut=40 / intra_refresh=0 / rc_lookahead=60 / rc=crf / mbtree=1 / crf=16.5 / qcomp=0.60 / qpmin=0 / qpmax=81 / qpstep=4 / ip_ratio=1.40 / aq=3:0.50
Default                        : Yes
Forced                         : No
Color range                    : Limited
Matrix coefficients            : BT.709

Audio
ID                             : 2
Format                         : AAC LC
Format/Info                    : Advanced Audio Codec Low Complexity
Codec ID                       : A_AAC-2
Duration                       : 1 h 10 min
Bit rate                       : 125 kb/s
Channel(s)                     : 2 channels
Channel layout                 : L R
Sampling rate                  : 48.0 kHz
Frame rate                     : 46.875 FPS (1024 SPF)
Compression mode               : Lossy
Stream size                    : 63.7 MiB (3%)
Title                          : Japanese audio
Language                       : Japanese
Default                        : Yes
Forced                         : No

Text
ID                             : 3
Format                         : ASS
Codec ID                       : S_TEXT/ASS
Codec ID/Info                  : Advanced Sub Station Alpha
Duration                       : 1 h 10 min
Bit rate                       : 2 075 b/s
Frame rate                     : 2.114 FPS
Count of elements              : 8925
Compression mode               : Lossless
Stream size                    : 1.04 MiB (0%)
Title                          : English subtitles
Language                       : English
Default                        : Yes
Forced                         : No

Menu
00:00:00.000                   : en:Opening Credits
00:02:53.270                   : en:Nakao Yuri
00:19:50.000                   : en:A Rival
00:34:00.940                   : en:Yasuda Yumiki
00:45:08.990                   : en:The Koushien Prelims
00:58:04.120                   : en:Sixteenth Birthday
01:08:44.180                   : en:Ending Credits

Pasted: Nov 26, 2023, 2:42:54 am
Views: 3