get paid to paste

A.Haunting.in.Venice.2023.1080p.BluRay.REMUX.AVC.DTS-HD.MA.7.1-TRiToN

General
Unique ID                                : 80293241367283550033595351292436252015 (0x3C67EA711709B5518C0D441750DF856F)
Complete name                            : A.Haunting.in.Venice.2023.1080p.BluRay.REMUX.AVC.DTS-HD.MA.7.1-TRiToN.mkv
Format                                   : Matroska
Format version                           : Version 4 / Version 2
File size                                : 27.5 GiB
Duration                                 : 1h 43mn
Overall bit rate mode                    : Variable
Overall bit rate                         : 38.1 Mbps
Movie name                               : A Haunting in Venice (2023)
Encoded date                             : UTC 2023-11-26 06:32:40
Writing application                      : mkvmerge v80.0 ('Roundabout') 64-bit
Writing library                          : libebml v1.4.4 + libmatroska v1.7.1
IMDB                                     : tt22687790
TMDB                                     : movie/945729

Video
ID                                       : 1
Format                                   : AVC
Format/Info                              : Advanced Video Codec
Format profile                           : [email protected]
Format settings, CABAC                   : Yes
Format settings, ReFrames                : 4 frames
Codec ID                                 : V_MPEG4/ISO/AVC
Duration                                 : 1h 43mn
Bit rate mode                            : Variable
Bit rate                                 : 33.8 Mbps
Maximum bit rate                         : 37.5 Mbps
Width                                    : 1 920 pixels
Height                                   : 1 080 pixels
Display aspect ratio                     : 16:9
Frame rate mode                          : Constant
Frame rate                               : 23.976 (24000/1001) fps
Color space                              : YUV
Chroma subsampling                       : 4:2:0
Bit depth                                : 8 bits
Scan type                                : Progressive
Bits/(Pixel*Frame)                       : 0.681
Stream size                              : 24.4 GiB (89%)
Title                                    : MPEG-4 AVC Video / 33978 kbps / 1080p / 23.976 fps / 16:9 / High Profile 4.1
Language                                 : zxx
Default                                  : Yes
Forced                                   : No

Audio
ID                                       : 2
Format                                   : DTS
Format/Info                              : Digital Theater Systems
Format profile                           : MA / Core
Mode                                     : 16
Format settings, Endianness              : Big
Codec ID                                 : A_DTS
Duration                                 : 1h 43mn
Bit rate mode                            : Variable / Constant
Bit rate                                 : 4 139 Kbps / 1 509 Kbps
Channel(s)                               : 8 channels / 6 channels
Channel positions                        : Front: L C R, Side: L R, Back: L R, LFE / Front: L C R, Side: L R, LFE
Sampling rate                            : 48.0 KHz
Frame rate                               : 93.750 fps (512 spf)
Bit depth                                : 24 bits
Compression mode                         : Lossless / Lossy
Stream size                              : 2.99 GiB (11%)
Title                                    : DTS-HD Master Audio / 7.1 / 48 kHz / 4139 kbps / 24-bit
Language                                 : English
Default                                  : Yes
Forced                                   : No

Text #1
ID                                       : 3
Format                                   : UTF-8
Codec ID                                 : S_TEXT/UTF8
Codec ID/Info                            : UTF-8 Plain Text
Duration                                 : 1h 35mn
Bit rate                                 : 67 bps
Count of elements                        : 1517
Stream size                              : 47.2 KiB (0%)
Language                                 : English
Default                                  : No
Forced                                   : No

Text #2
ID                                       : 4
Format                                   : PGS
Codec ID                                 : S_HDMV/PGS
Codec ID/Info                            : Picture based subtitle format used on BDs/HD-DVDs
Duration                                 : 1h 37mn
Bit rate                                 : 57.9 Kbps
Count of elements                        : 3698
Stream size                              : 40.5 MiB (0%)
Title                                    : SDH
Language                                 : English
Default                                  : No
Forced                                   : No

Text #3
ID                                       : 5
Format                                   : UTF-8
Codec ID                                 : S_TEXT/UTF8
Codec ID/Info                            : UTF-8 Plain Text
Duration                                 : 1h 41mn
Bit rate                                 : 90 bps
Count of elements                        : 1521
Stream size                              : 67.6 KiB (0%)
Language                                 : Arabic
Default                                  : No
Forced                                   : No

Text #4
ID                                       : 6
Format                                   : UTF-8
Codec ID                                 : S_TEXT/UTF8
Codec ID/Info                            : UTF-8 Plain Text
Duration                                 : 1h 41mn
Bit rate                                 : 99 bps
Count of elements                        : 1492
Stream size                              : 74.4 KiB (0%)
Language                                 : Bulgarian
Default                                  : No
Forced                                   : No

Text #5
ID                                       : 7
Format                                   : UTF-8
Codec ID                                 : S_TEXT/UTF8
Codec ID/Info                            : UTF-8 Plain Text
Duration                                 : 1h 41mn
Bit rate                                 : 53 bps
Count of elements                        : 1521
Stream size                              : 39.9 KiB (0%)
Title                                    : Cantonese
Language                                 : Chinese
Default                                  : No
Forced                                   : No

Text #6
ID                                       : 8
Format                                   : UTF-8
Codec ID                                 : S_TEXT/UTF8
Codec ID/Info                            : UTF-8 Plain Text
Duration                                 : 1h 41mn
Bit rate                                 : 49 bps
Count of elements                        : 1534
Stream size                              : 37.0 KiB (0%)
Title                                    : Traditional
Language                                 : Chinese
Default                                  : No
Forced                                   : No

Text #7
ID                                       : 9
Format                                   : UTF-8
Codec ID                                 : S_TEXT/UTF8
Codec ID/Info                            : UTF-8 Plain Text
Duration                                 : 1h 41mn
Bit rate                                 : 61 bps
Count of elements                        : 1451
Stream size                              : 46.2 KiB (0%)
Language                                 : Croatian
Default                                  : No
Forced                                   : No

Text #8
ID                                       : 10
Format                                   : UTF-8
Codec ID                                 : S_TEXT/UTF8
Codec ID/Info                            : UTF-8 Plain Text
Duration                                 : 1h 41mn
Bit rate                                 : 64 bps
Count of elements                        : 1126
Stream size                              : 48.1 KiB (0%)
Language                                 : Czech
Default                                  : No
Forced                                   : No

Text #9
ID                                       : 11
Format                                   : UTF-8
Codec ID                                 : S_TEXT/UTF8
Codec ID/Info                            : UTF-8 Plain Text
Duration                                 : 1h 41mn
Bit rate                                 : 60 bps
Count of elements                        : 1064
Stream size                              : 45.0 KiB (0%)
Language                                 : Danish
Default                                  : No
Forced                                   : No

Text #10
ID                                       : 12
Format                                   : UTF-8
Codec ID                                 : S_TEXT/UTF8
Codec ID/Info                            : UTF-8 Plain Text
Duration                                 : 1h 41mn
Bit rate                                 : 56 bps
Count of elements                        : 1244
Stream size                              : 42.1 KiB (0%)
Language                                 : Dutch
Default                                  : No
Forced                                   : No

Text #11
ID                                       : 13
Format                                   : UTF-8
Codec ID                                 : S_TEXT/UTF8
Codec ID/Info                            : UTF-8 Plain Text
Duration                                 : 1h 41mn
Bit rate                                 : 62 bps
Count of elements                        : 1519
Stream size                              : 46.7 KiB (0%)
Language                                 : Estonian
Default                                  : No
Forced                                   : No

Text #12
ID                                       : 14
Format                                   : UTF-8
Codec ID                                 : S_TEXT/UTF8
Codec ID/Info                            : UTF-8 Plain Text
Duration                                 : 1h 41mn
Bit rate                                 : 66 bps
Count of elements                        : 1517
Stream size                              : 49.9 KiB (0%)
Language                                 : Finnish
Default                                  : No
Forced                                   : No

Text #13
ID                                       : 15
Format                                   : PGS
Codec ID                                 : S_HDMV/PGS
Codec ID/Info                            : Picture based subtitle format used on BDs/HD-DVDs
Duration                                 : 1h 41mn
Bit rate                                 : 50.7 Kbps
Count of elements                        : 3068
Stream size                              : 37.0 MiB (0%)
Language                                 : French
Default                                  : No
Forced                                   : No

Text #14
ID                                       : 16
Format                                   : UTF-8
Codec ID                                 : S_TEXT/UTF8
Codec ID/Info                            : UTF-8 Plain Text
Duration                                 : 1h 41mn
Bit rate                                 : 65 bps
Count of elements                        : 1551
Stream size                              : 49.1 KiB (0%)
Language                                 : German
Default                                  : No
Forced                                   : No

Text #15
ID                                       : 17
Format                                   : UTF-8
Codec ID                                 : S_TEXT/UTF8
Codec ID/Info                            : UTF-8 Plain Text
Duration                                 : 1h 41mn
Bit rate                                 : 112 bps
Count of elements                        : 1519
Stream size                              : 84.0 KiB (0%)
Language                                 : Greek
Default                                  : No
Forced                                   : No

Text #16
ID                                       : 18
Format                                   : UTF-8
Codec ID                                 : S_TEXT/UTF8
Codec ID/Info                            : UTF-8 Plain Text
Duration                                 : 1h 41mn
Bit rate                                 : 82 bps
Count of elements                        : 1522
Stream size                              : 61.5 KiB (0%)
Language                                 : Hebrew
Default                                  : No
Forced                                   : No

Text #17
ID                                       : 19
Format                                   : UTF-8
Codec ID                                 : S_TEXT/UTF8
Codec ID/Info                            : UTF-8 Plain Text
Duration                                 : 1h 41mn
Bit rate                                 : 59 bps
Count of elements                        : 1516
Stream size                              : 44.2 KiB (0%)
Language                                 : Hungarian
Default                                  : No
Forced                                   : No

Text #18
ID                                       : 20
Format                                   : UTF-8
Codec ID                                 : S_TEXT/UTF8
Codec ID/Info                            : UTF-8 Plain Text
Duration                                 : 1h 41mn
Bit rate                                 : 63 bps
Count of elements                        : 1507
Stream size                              : 47.1 KiB (0%)
Language                                 : Icelandic
Default                                  : No
Forced                                   : No

Text #19
ID                                       : 21
Format                                   : UTF-8
Codec ID                                 : S_TEXT/UTF8
Codec ID/Info                            : UTF-8 Plain Text
Duration                                 : 1h 41mn
Bit rate                                 : 62 bps
Count of elements                        : 1517
Stream size                              : 46.7 KiB (0%)
Language                                 : Italian
Default                                  : No
Forced                                   : No

Text #20
ID                                       : 22
Format                                   : UTF-8
Codec ID                                 : S_TEXT/UTF8
Codec ID/Info                            : UTF-8 Plain Text
Duration                                 : 1h 41mn
Bit rate                                 : 55 bps
Count of elements                        : 1367
Stream size                              : 41.5 KiB (0%)
Language                                 : Japanese
Default                                  : No
Forced                                   : No

Text #21
ID                                       : 23
Format                                   : UTF-8
Codec ID                                 : S_TEXT/UTF8
Codec ID/Info                            : UTF-8 Plain Text
Duration                                 : 1h 36mn
Bit rate                                 : 70 bps
Count of elements                        : 1523
Stream size                              : 50.2 KiB (0%)
Language                                 : Korean
Default                                  : No
Forced                                   : No

Text #22
ID                                       : 24
Format                                   : UTF-8
Codec ID                                 : S_TEXT/UTF8
Codec ID/Info                            : UTF-8 Plain Text
Duration                                 : 1h 41mn
Bit rate                                 : 61 bps
Count of elements                        : 1518
Stream size                              : 46.2 KiB (0%)
Language                                 : Lithuanian
Default                                  : No
Forced                                   : No

Text #23
ID                                       : 25
Format                                   : UTF-8
Codec ID                                 : S_TEXT/UTF8
Codec ID/Info                            : UTF-8 Plain Text
Duration                                 : 1h 41mn
Bit rate                                 : 60 bps
Count of elements                        : 1520
Stream size                              : 44.9 KiB (0%)
Language                                 : Norwegian
Default                                  : No
Forced                                   : No

Text #24
ID                                       : 26
Format                                   : UTF-8
Codec ID                                 : S_TEXT/UTF8
Codec ID/Info                            : UTF-8 Plain Text
Duration                                 : 1h 41mn
Bit rate                                 : 59 bps
Count of elements                        : 1427
Stream size                              : 44.6 KiB (0%)
Language                                 : Polish
Default                                  : No
Forced                                   : No

Text #25
ID                                       : 27
Format                                   : UTF-8
Codec ID                                 : S_TEXT/UTF8
Codec ID/Info                            : UTF-8 Plain Text
Duration                                 : 1h 41mn
Bit rate                                 : 64 bps
Count of elements                        : 1521
Stream size                              : 48.0 KiB (0%)
Language                                 : Portuguese
Default                                  : No
Forced                                   : No

Text #26
ID                                       : 28
Format                                   : UTF-8
Codec ID                                 : S_TEXT/UTF8
Codec ID/Info                            : UTF-8 Plain Text
Duration                                 : 1h 41mn
Bit rate                                 : 58 bps
Count of elements                        : 1518
Stream size                              : 43.3 KiB (0%)
Language                                 : Slovak
Default                                  : No
Forced                                   : No

Text #27
ID                                       : 29
Format                                   : UTF-8
Codec ID                                 : S_TEXT/UTF8
Codec ID/Info                            : UTF-8 Plain Text
Duration                                 : 1h 41mn
Bit rate                                 : 57 bps
Count of elements                        : 1197
Stream size                              : 42.7 KiB (0%)
Language                                 : Slovenian
Default                                  : No
Forced                                   : No

Text #28
ID                                       : 30
Format                                   : UTF-8
Codec ID                                 : S_TEXT/UTF8
Codec ID/Info                            : UTF-8 Plain Text
Duration                                 : 1h 41mn
Bit rate                                 : 61 bps
Count of elements                        : 1518
Stream size                              : 46.2 KiB (0%)
Title                                    : Castilian
Language                                 : Spanish
Default                                  : No
Forced                                   : No

Text #29
ID                                       : 31
Format                                   : PGS
Codec ID                                 : S_HDMV/PGS
Codec ID/Info                            : Picture based subtitle format used on BDs/HD-DVDs
Duration                                 : 1h 36mn
Bit rate                                 : 46.5 Kbps
Count of elements                        : 3038
Stream size                              : 32.2 MiB (0%)
Title                                    : Latin American
Language                                 : Spanish
Default                                  : No
Forced                                   : No

Text #30
ID                                       : 32
Format                                   : UTF-8
Codec ID                                 : S_TEXT/UTF8
Codec ID/Info                            : UTF-8 Plain Text
Duration                                 : 1h 41mn
Bit rate                                 : 58 bps
Count of elements                        : 996
Stream size                              : 43.8 KiB (0%)
Language                                 : Swedish
Default                                  : No
Forced                                   : No

Text #31
ID                                       : 33
Format                                   : UTF-8
Codec ID                                 : S_TEXT/UTF8
Codec ID/Info                            : UTF-8 Plain Text
Duration                                 : 1h 41mn
Bit rate                                 : 63 bps
Count of elements                        : 1479
Stream size                              : 47.3 KiB (0%)
Language                                 : Turkish
Default                                  : No
Forced                                   : No

Text #32
ID                                       : 34
Format                                   : UTF-8
Codec ID                                 : S_TEXT/UTF8
Codec ID/Info                            : UTF-8 Plain Text
Duration                                 : 1h 41mn
Bit rate                                 : 105 bps
Count of elements                        : 1521
Stream size                              : 79.0 KiB (0%)
Language                                 : Ukrainian
Default                                  : No
Forced                                   : No

Menu
00:00:00.000                             : en:Chapter 01
00:02:39.659                             : en:Chapter 02
00:03:33.255                             : en:Chapter 03
00:06:40.942                             : en:Chapter 04
00:11:54.464                             : en:Chapter 05
00:17:41.185                             : en:Chapter 06
00:19:04.435                             : en:Chapter 07
00:23:12.850                             : en:Chapter 08
00:28:36.256                             : en:Chapter 09
00:33:09.821                             : en:Chapter 10
00:36:11.586                             : en:Chapter 11
00:42:54.906                             : en:Chapter 12
00:46:47.221                             : en:Chapter 13
00:51:01.058                             : en:Chapter 14
00:55:04.092                             : en:Chapter 15
01:01:57.464                             : en:Chapter 16
01:07:12.820                             : en:Chapter 17
01:11:02.300                             : en:Chapter 18
01:16:03.642                             : en:Chapter 19
01:20:41.628                             : en:Chapter 20
01:29:08.426                             : en:Chapter 21
01:30:14.826                             : en:Chapter 22
01:35:09.287                             : en:Chapter 23
01:40:16.427                             : en:Chapter 24

Pasted: Nov 27, 2023, 6:05:38 pm
Views: 6