get paid to paste

Face.Off.6.the.Ticket.of.Destiny.2023.1080p.NF.WEB-DL.AAC2.0.x264-T4H

General
Unique ID                      : 256561231311005875089285041819377495494 (0xC103E552D36CDD019F992DB721C46DC6)
Complete name                  : Face.Off.6.the.Ticket.of.Destiny.2023.1080p.NF.WEB-DL.AAC2.0.x264-T4H.mkv
Format                         : Matroska
Format version                 : Version 4
File size                      : 4.70 GiB
Duration                       : 2 h 11 min
Overall bit rate mode          : Variable
Overall bit rate               : 5 122 kb/s
Writing application            : mkvmerge v78.0 ('Running') 64-bit
Writing library                : libebml v1.4.4 + libmatroska v1.7.1 / Lavf60.10.100

Video
ID                             : 1
Format                         : AVC
Format/Info                    : Advanced Video Codec
Format profile                 : Main@L4
Format settings                : CABAC / 3 Ref Frames
Format settings, CABAC         : Yes
Format settings, Reference fra : 3 frames
Codec ID                       : V_MPEG4/ISO/AVC
Duration                       : 2 h 11 min
Bit rate mode                  : Variable
Bit rate                       : 5 000 kb/s
Maximum bit rate               : 7 500 kb/s
Width                          : 1 920 pixels
Height                         : 1 080 pixels
Display aspect ratio           : 16:9
Frame rate mode                : Constant
Frame rate                     : 24.000 FPS
Color space                    : YUV
Chroma subsampling             : 4:2:0
Bit depth                      : 8 bits
Scan type                      : Progressive
Bits/(Pixel*Frame)             : 0.100
Stream size                    : 4.58 GiB (97%)
Writing library                : x264 core 148 r2727 7d026e8
Encoding settings              : cabac=1 / ref=3 / deblock=1:0:0 / analyse=0x1:0x111 / me=umh / subme=10 / psy=1 / psy_rd=1.00:0.00 / mixed_ref=1 / me_range=24 / chroma_me=1 / trellis=2 / 8x8dct=0 / cqm=0 / deadzone=21,11 / fast_pskip=1 / chroma_qp_offset=-2 / threads=6 / lookahead_threads=1 / sliced_threads=0 / nr=0 / decimate=1 / interlaced=0 / bluray_compat=0 / stitchable=1 / constrained_intra=0 / bframes=2 / b_pyramid=0 / b_adapt=2 / b_bias=0 / direct=3 / weightb=1 / open_gop=0 / weightp=2 / keyint=240 / keyint_min=121 / scenecut=0 / intra_refresh=0 / rc_lookahead=48 / rc=2pass / mbtree=1 / bitrate=5000 / ratetol=1.0 / qcomp=0.50 / qpmin=6 / qpmax=51 / qpstep=4 / cplxblur=20.0 / qblur=0.5 / vbv_maxrate=7500 / vbv_bufsize=10000 / nal_hrd=vbr / filler=0 / ip_ratio=1.40 / aq=1:1.00
Default                        : Yes
Forced                         : No

Audio
ID                             : 2
Format                         : AAC LC SBR
Format/Info                    : Advanced Audio Codec Low Complexity with Spectral Band Replication
Commercial name                : HE-AAC
Format settings                : Explicit
Codec ID                       : A_AAC-2
Duration                       : 2 h 11 min
Bit rate                       : 128 kb/s
Channel(s)                     : 2 channels
Channel layout                 : L R
Sampling rate                  : 48.0 kHz
Frame rate                     : 23.438 FPS (2048 SPF)
Compression mode               : Lossy
Stream size                    : 120 MiB (2%)
Title                          : Vietnamese
Language                       : Vietnamese
Default                        : No
Forced                         : No

Text #1
ID                             : 3
Format                         : UTF-8
Codec ID                       : S_TEXT/UTF8
Codec ID/Info                  : UTF-8 Plain Text
Duration                       : 2 h 9 min
Bit rate                       : 62 b/s
Frame rate                     : 0.240 FPS
Count of elements              : 1868
Stream size                    : 59.2 KiB (0%)
Title                          : English
Language                       : English
Default                        : No
Forced                         : No

Text #2
ID                             : 4
Format                         : UTF-8
Codec ID                       : S_TEXT/UTF8
Codec ID/Info                  : UTF-8 Plain Text
Duration                       : 2 h 9 min
Bit rate                       : 63 b/s
Frame rate                     : 0.241 FPS
Count of elements              : 1875
Stream size                    : 60.4 KiB (0%)
Title                          : Indonesian
Language                       : Indonesian
Default                        : No
Forced                         : No

Text #3
ID                             : 5
Format                         : UTF-8
Codec ID                       : S_TEXT/UTF8
Codec ID/Info                  : UTF-8 Plain Text
Duration                       : 2 h 9 min
Bit rate                       : 58 b/s
Frame rate                     : 0.241 FPS
Count of elements              : 1878
Stream size                    : 55.9 KiB (0%)
Title                          : Korean
Language                       : Korean
Default                        : No
Forced                         : No

Text #4
ID                             : 6
Format                         : UTF-8
Codec ID                       : S_TEXT/UTF8
Codec ID/Info                  : UTF-8 Plain Text
Duration                       : 2 h 9 min
Bit rate                       : 61 b/s
Frame rate                     : 0.241 FPS
Count of elements              : 1878
Stream size                    : 58.2 KiB (0%)
Title                          : Malay
Language                       : Malay
Default                        : No
Forced                         : No

Text #5
ID                             : 7
Format                         : UTF-8
Codec ID                       : S_TEXT/UTF8
Codec ID/Info                  : UTF-8 Plain Text
Duration                       : 2 h 10 min
Bit rate                       : 134 b/s
Frame rate                     : 0.242 FPS
Count of elements              : 1888
Stream size                    : 128 KiB (0%)
Title                          : Thai
Language                       : Thai
Default                        : No
Forced                         : No

Text #6
ID                             : 8
Format                         : UTF-8
Codec ID                       : S_TEXT/UTF8
Codec ID/Info                  : UTF-8 Plain Text
Duration                       : 2 h 7 min
Bit rate                       : 82 b/s
Frame rate                     : 0.251 FPS
Count of elements              : 1916
Stream size                    : 76.8 KiB (0%)
Title                          : Vietnamese
Language                       : Vietnamese
Default                        : No
Forced                         : No

Pasted: Dec 3, 2023, 5:04:03 pm
Views: 6