get paid to paste

Mission Impossible Dead Reckoning Part One 2023...

General
Unique ID                                : 42362205075393209771916356497063241986 (0x1FDEA9F71640BBB15C282EFA4ADF6902)
Complete name                            : Mission Impossible Dead Reckoning Part One 2023 1080p WEB-DL x264-ITU.mkv
Format                                   : Matroska
Format version                           : Version 4 / Version 2
File size                                : 4.67 GiB
Duration                                 : 2h 43mn
Overall bit rate                         : 4 096 Kbps
Movie name                               : www.dboxasian.com
Encoded date                             : UTC 2023-10-09 07:41:30 / UTC 
Writing application                      : mkvmerge v68.0.0.1 ('The Curtain') 64-bit
Writing library                          : libebml v1.4.2 + libmatroska v1.6.4 / Lavf55.12.0

Video
ID                                       : 1
Format                                   : AVC
Format/Info                              : Advanced Video Codec
Format profile                           : [email protected]
Format settings, CABAC                   : Yes
Format settings, ReFrames                : 5 frames
Codec ID                                 : V_MPEG4/ISO/AVC
Duration                                 : 2h 43mn
Bit rate                                 : 3 456 Kbps
Width                                    : 1 920 pixels
Height                                   : 808 pixels
Display aspect ratio                     : 2.40:1
Frame rate mode                          : Constant
Frame rate                               : 23.976 (24000/1001) fps
Color space                              : YUV
Chroma subsampling                       : 4:2:0
Bit depth                                : 8 bits
Scan type                                : Progressive
Bits/(Pixel*Frame)                       : 0.093
Stream size                              : 3.85 GiB (82%)
Writing library                          : x264 core 142 r2479 dd79a61
Encoding settings                        : cabac=1 / ref=5 / deblock=1:-1:-1 / analyse=0x3:0x133 / me=umh / subme=9 / psy=1 / psy_rd=1.00:0.15 / mixed_ref=1 / me_range=16 / chroma_me=1 / trellis=2 / 8x8dct=1 / cqm=0 / deadzone=21,11 / fast_pskip=1 / chroma_qp_offset=-3 / threads=72 / lookahead_threads=6 / sliced_threads=0 / nr=0 / decimate=1 / interlaced=0 / bluray_compat=0 / constrained_intra=0 / bframes=3 / b_pyramid=2 / b_adapt=2 / b_bias=0 / direct=3 / weightb=1 / open_gop=0 / weightp=2 / keyint=240 / keyint_min=24 / scenecut=40 / intra_refresh=0 / rc_lookahead=60 / rc=2pass / mbtree=1 / bitrate=3456 / ratetol=1.0 / qcomp=0.60 / qpmin=0 / qpmax=69 / qpstep=4 / cplxblur=20.0 / qblur=0.5 / vbv_maxrate=62500 / vbv_bufsize=78125 / nal_hrd=none / filler=0 / ip_ratio=1.40 / aq=1:1.00
Default                                  : Yes
Forced                                   : No
Color range                              : Limited
Color primaries                          : BT.709
Transfer characteristics                 : BT.709
Matrix coefficients                      : BT.709
Statistics Tags Issue                    : mkvmerge v68.0.0.1 ('The Curtain') 64-bit 2023-10-09 07:41:30 / mkvmerge v68.0.0.1 ('The Curtain') 64-bit 2023-10-09 07:41:30 / UTC 
FromStats_BitRate                        : 3454445
FromStats_Duration                       : 02:43:08.863000000
FromStats_FrameCount                     : 234698
FromStats_StreamSize                     : 4226886971

Audio
ID                                       : 2
Format                                   : AC-3
Format/Info                              : Audio Coding 3
Mode extension                           : CM (complete main)
Format settings, Endianness              : Big
Codec ID                                 : A_AC3
Duration                                 : 2h 43mn
Bit rate mode                            : Constant
Bit rate                                 : 640 Kbps
Channel(s)                               : 6 channels
Channel positions                        : Front: L C R, Side: L R, LFE
Sampling rate                            : 48.0 KHz
Frame rate                               : 31.250 fps (1536 spf)
Compression mode                         : Lossy
Delay relative to video                  : -5ms
Stream size                              : 747 MiB (16%)
Title                                    : Surround
Language                                 : English
Default                                  : Yes
Forced                                   : No
Statistics Tags Issue                    : mkvmerge v68.0.0.1 ('The Curtain') 64-bit 2023-10-09 07:41:30 / mkvmerge v68.0.0.1 ('The Curtain') 64-bit 2023-10-09 07:41:30 / UTC 
FromStats_BitRate                        : 640000
FromStats_Duration                       : 02:43:08.928000000
FromStats_FrameCount                     : 305904
FromStats_StreamSize                     : 783114240

Pasted: Oct 9, 2023, 8:25:51 am
Views: 4