get paid to paste

Nishana 2022.1080p.WeB.DL.AVC.AAC.2.0.DusIcTv

General
Unique ID                   : 39982289366267063159483077968283102280 (0x1E144F0FB76D31A8EEE79649E5D0EC48)
Complete name               : Nishana 2022.1080p.WeB.DL.AVC.AAC.2.0.DusIcTv.mkv
Format                      : Matroska
Format version              : Version 4
File size                   : 3.78 GiB
Duration                    : 2 h 23 min
Overall bit rate mode       : Variable
Overall bit rate            : 3 771 kb/s
Encoded date                : UTC 2023-02-25 11:17:20
Writing application         : mkvmerge v67.0.0 ('Under Stars') 64-bit
Writing library             : libebml v1.4.2 + libmatroska v1.6.4
Attachments                 : bwtorrents.tv.png

Video
ID                          : 1
Format                      : AVC
Format/Info                 : Advanced Video Codec
Format profile              : High@L4
Format settings             : CABAC / 3 Ref Frames
Format settings, CABAC      : Yes
Format settings, Reference  : 3 frames
Codec ID                    : V_MPEG4/ISO/AVC
Duration                    : 2 h 23 min
Bit rate mode               : Variable
Bit rate                    : 3 704 kb/s
Maximum bit rate            : 8 500 kb/s
Width                       : 1 920 pixels
Height                      : 1 080 pixels
Display aspect ratio        : 16:9
Frame rate mode             : Constant
Frame rate                  : 29.970 (30000/1001) FPS
Color space                 : YUV
Chroma subsampling          : 4:2:0
Bit depth                   : 8 bits
Scan type                   : Progressive
Bits/(Pixel*Frame)          : 0.060
Stream size                 : 3.71 GiB (98%)
Default                     : Yes
Forced                      : No

Audio
ID                          : 2
Format                      : AAC LC SBR
Format/Info                 : Advanced Audio Codec Low Complexity with Spectral Band Replication
Commercial name             : HE-AAC
Format settings             : Explicit
Codec ID                    : A_AAC-2
Duration                    : 2 h 23 min
Bit rate                    : 64.0 kb/s
Channel(s)                  : 2 channels
Channel layout              : L R
Sampling rate               : 48.0 kHz
Frame rate                  : 23.438 FPS (2048 SPF)
Compression mode            : Lossy
Stream size                 : 65.7 MiB (2%)
Language                    : Panjabi
Default                     : Yes
Forced                      : No

Text
ID                          : 3
Format                      : UTF-8
Codec ID                    : S_TEXT/UTF8
Codec ID/Info               : UTF-8 Plain Text
Duration                    : 2 h 20 min
Bit rate                    : 71 b/s
Count of elements           : 2301
Stream size                 : 74.2 KiB (0%)
Language                    : English
Default                     : No
Forced                      : No

Pasted: Feb 26, 2023, 9:33:14 am
Views: 10