get paid to paste

Eiffel.Im.In.Love.2003.1080p.NF.WEB-DL.DDP5.1.x264-RSG

General
Unique ID                   : 182877014180783222304018274890314603546 (0x8994D4EF3658FE914CAA82EC5E02DC1A)
Complete name               : Eiffel.Im.In.Love.2003.1080p.NF.WEB-DL.DDP5.1.x264-RSG.mkv
Format                      : Matroska
Format version              : Version 4
File size                   : 4.05 GiB
Duration                    : 2 h 15 min
Overall bit rate mode       : Variable
Overall bit rate            : 4 286 kb/s
Encoded date                : UTC 2023-05-08 02:14:59
Writing application         : mkvmerge v63.0.0 ('Everything') 32-bit
Writing library             : libebml v1.4.2 + libmatroska v1.6.4

Video
ID                          : 1
Format                      : AVC
Format/Info                 : Advanced Video Codec
Format profile              : Main@L4
Format settings             : CABAC / 3 Ref Frames
Format settings, CABAC      : Yes
Format settings, Reference  : 3 frames
Codec ID                    : V_MPEG4/ISO/AVC
Duration                    : 2 h 15 min
Bit rate mode               : Variable
Bit rate                    : 3 644 kb/s
Nominal bit rate            : 4 020 kb/s
Maximum bit rate            : 6 030 kb/s
Width                       : 1 920 pixels
Height                      : 1 080 pixels
Display aspect ratio        : 16:9
Frame rate mode             : Constant
Frame rate                  : 25.000 FPS
Color space                 : YUV
Chroma subsampling          : 4:2:0
Bit depth                   : 8 bits
Scan type                   : Progressive
Bits/(Pixel*Frame)          : 0.070
Stream size                 : 3.45 GiB (85%)
Writing library             : x264 core 148 r2722 1b0121b
Encoding settings           : cabac=1 / ref=3 / deblock=1:0:0 / analyse=0x1:0x111 / me=umh / subme=10 / psy=1 / psy_rd=1.00:0.00 / mixed_ref=1 / me_range=24 / chroma_me=1 / trellis=2 / 8x8dct=0 / cqm=0 / deadzone=21,11 / fast_pskip=1 / chroma_qp_offset=-2 / threads=8 / lookahead_threads=1 / sliced_threads=0 / nr=0 / decimate=1 / interlaced=0 / bluray_compat=0 / stitchable=1 / constrained_intra=0 / bframes=2 / b_pyramid=0 / b_adapt=2 / b_bias=0 / direct=3 / weightb=1 / open_gop=0 / weightp=2 / keyint=250 / keyint_min=25 / scenecut=0 / intra_refresh=0 / rc_lookahead=50 / rc=2pass / mbtree=1 / bitrate=4020 / ratetol=1.0 / qcomp=0.50 / qpmin=6 / qpmax=51 / qpstep=4 / cplxblur=20.0 / qblur=0.5 / vbv_maxrate=6030 / vbv_bufsize=8040 / nal_hrd=vbr / filler=0 / ip_ratio=1.40 / aq=1:1.00
Default                     : Yes
Forced                      : No

Audio
ID                          : 2
Format                      : E-AC-3
Format/Info                 : Enhanced AC-3
Commercial name             : Dolby Digital Plus
Codec ID                    : A_EAC3
Duration                    : 2 h 15 min
Bit rate mode               : Constant
Bit rate                    : 640 kb/s
Channel(s)                  : 6 channels
Channel layout              : L R C LFE Ls Rs
Sampling rate               : 48.0 kHz
Frame rate                  : 31.250 FPS (1536 SPF)
Compression mode            : Lossy
Stream size                 : 620 MiB (15%)
Language                    : Indonesian
Service kind                : Complete Main
Default                     : Yes
Forced                      : No

Text #1
ID                          : 3
Format                      : UTF-8
Codec ID                    : S_TEXT/UTF8
Codec ID/Info               : UTF-8 Plain Text
Duration                    : 2 h 12 min
Bit rate                    : 57 b/s
Count of elements           : 1877
Stream size                 : 55.4 KiB (0%)
Language                    : English
Default                     : No
Forced                      : No

Text #2
ID                          : 4
Format                      : UTF-8
Codec ID                    : S_TEXT/UTF8
Codec ID/Info               : UTF-8 Plain Text
Duration                    : 2 h 15 min
Bit rate                    : 80 b/s
Count of elements           : 2303
Stream size                 : 79.6 KiB (0%)
Title                       : SDH
Language                    : Indonesian
Default                     : No
Forced                      : No

Text #3
ID                          : 5
Format                      : UTF-8
Codec ID                    : S_TEXT/UTF8
Codec ID/Info               : UTF-8 Plain Text
Duration                    : 2 h 12 min
Bit rate                    : 60 b/s
Count of elements           : 1897
Stream size                 : 58.9 KiB (0%)
Language                    : Malay
Default                     : No
Forced                      : No

Menu
00:00:00.000                : en:Part 01
02:10:30.450                : en:Credits

Pasted: Jun 5, 2023, 11:38:57 pm
Views: 3