get paid to paste

Lat Mat 4 2019 1080p WEB-DL H.264 DD+5.1-3cTWeB

General
Unique ID                   : 105875903468343630059834962504453454920 (0x4FA6F510D16DB615154AC2135F83FC48)
Complete name               : Lat Mat 4 2019 1080p WEB-DL H.264 DD+5.1-3cTWeB.mkv
Format                      : Matroska
Format version              : Version 4
File size                   : 4.66 GiB
Duration                    : 1 h 40 min
Overall bit rate            : 6 671 kb/s
Movie name                  : www.dwba.xyz
Encoded date                : UTC 2023-05-11 10:00:49
Writing application         : mkvmerge v52.0.0 ('Secret For The Mad') 64-bit
Writing library             : libebml v1.4.1 + libmatroska v1.6.2 / Lavf59.37.100
Cover                       : Yes
Attachments                 : cover.jpg

Video
ID                          : 1
Format                      : AVC
Format/Info                 : Advanced Video Codec
Format profile              : [email protected]
Format settings             : CABAC / 4 Ref Frames
Format settings, CABAC      : Yes
Format settings, Reference  : 4 frames
Codec ID                    : V_MPEG4/ISO/AVC
Duration                    : 1 h 40 min
Bit rate                    : 6 029 kb/s
Width                       : 1 920 pixels
Height                      : 720 pixels
Display aspect ratio        : 2.667
Frame rate mode             : Constant
Frame rate                  : 24.000 FPS
Color space                 : YUV
Chroma subsampling          : 4:2:0
Bit depth                   : 8 bits
Scan type                   : Progressive
Bits/(Pixel*Frame)          : 0.182
Stream size                 : 4.21 GiB (90%)
Title                       : 3cTWeB
Language                    : Vietnamese
Default                     : Yes
Forced                      : No
Color range                 : Limited
Color primaries             : BT.709
Transfer characteristics    : BT.709
Matrix coefficients         : BT.709

Audio
ID                          : 2
Format                      : E-AC-3
Format/Info                 : Enhanced AC-3
Commercial name             : Dolby Digital Plus
Codec ID                    : A_EAC3
Duration                    : 1 h 39 min
Bit rate mode               : Constant
Bit rate                    : 640 kb/s
Channel(s)                  : 6 channels
Channel layout              : L R C LFE Ls Rs
Sampling rate               : 48.0 kHz
Frame rate                  : 31.250 FPS (1536 SPF)
Compression mode            : Lossy
Stream size                 : 458 MiB (10%)
Title                       : 3cTWeB
Language                    : Vietnamese
Service kind                : Complete Main
Default                     : Yes
Forced                      : No

Pasted: May 11, 2023, 10:03:26 am
Views: 4