get paid to paste

Our.Secret.Diary.2023.1080p.UNEXT.WEB-DL.AAC2.0.H264-OtakuSubs

General
Unique ID                                : 140414952075021151161510743342427848244 (0x69A2EFA3351C052B6E4C446FEC12BE34)
Complete name                            : Our.Secret.Diary.2023.1080p.UNEXT.WEB-DL.AAC2.0.H264-OtakuSubs.mkv
Format                                   : Matroska
Format version                           : Version 4 / Version 2
File size                                : 3.20 GiB
Duration                                 : 1h 50mn
Overall bit rate                         : 4 138 Kbps
Movie name                               : www.dboxasian.com
Encoded date                             : UTC 2023-12-07 05:06:38
Writing application                      : mkvmerge v68.0.0.1 ('The Curtain') 64-bit
Writing library                          : libebml v1.4.2 + libmatroska v1.6.4

Video
ID                                       : 1
Format                                   : AVC
Format/Info                              : Advanced Video Codec
Format profile                           : Main@L4
Format settings, CABAC                   : Yes
Format settings, ReFrames                : 2 frames
Codec ID                                 : V_MPEG4/ISO/AVC
Duration                                 : 1h 50mn
Bit rate                                 : 4 020 Kbps
Width                                    : 1 920 pixels
Height                                   : 1 080 pixels
Display aspect ratio                     : 16:9
Frame rate mode                          : Constant
Frame rate                               : 23.976 (23976/1000) fps
Color space                              : YUV
Chroma subsampling                       : 4:2:0
Bit depth                                : 8 bits
Scan type                                : Progressive
Bits/(Pixel*Frame)                       : 0.081
Stream size                              : 3.10 GiB (97%)
Title                                    : MPEG-4 AVC / 3925 KiBps / 23.976 fps / 1778:1
Writing library                          : x264 core 148 r2665kMod a01e339
Encoding settings                        : cabac=1 / ref=2 / deblock=1:1:1 / analyse=0x1:0x111 / me=tesa / subme=11 / psy=1 / fade_compensate=0.00 / psy_rd=0.40:0.10 / mixed_ref=1 / me_range=48 / chroma_me=1 / trellis=2 / 8x8dct=0 / cqm=0 / deadzone=21,11 / fast_pskip=1 / chroma_qp_offset=-3 / threads=12 / lookahead_threads=1 / sliced_threads=0 / nr=0 / decimate=1 / interlaced=0 / bluray_compat=0 / constrained_intra=0 / fgo=0 / bframes=2 / b_pyramid=0 / b_adapt=2 / b_bias=0 / direct=3 / weightb=1 / open_gop=0 / weightp=2 / keyint=48 / keyint_min=25 / scenecut=0 / intra_refresh=0 / rc_lookahead=48 / rc=2pass / mbtree=1 / bitrate=4020 / ratetol=1.0 / qcomp=0.80 / qpmin=10 / qpmax=69 / qpstep=15 / cplxblur=20.0 / qblur=0.5 / vbv_maxrate=8050 / vbv_bufsize=8050 / nal_hrd=none / filler=0 / ip_ratio=1.40 / aq=2:0.60
Language                                 : zxx
Default                                  : Yes
Forced                                   : No

Audio
ID                                       : 2
Format                                   : AAC
Format/Info                              : Advanced Audio Codec
Format profile                           : LC
Codec ID                                 : A_AAC
Duration                                 : 1h 50mn
Bit rate                                 : 125 Kbps
Channel(s)                               : 2 channels
Channel positions                        : Front: L R
Sampling rate                            : 48.0 KHz
Frame rate                               : 46.875 fps (1024 spf)
Compression mode                         : Lossy
Stream size                              : 99.2 MiB (3%)
Title                                    : Japanese / AAC LC / 2.0 / 48.000 kHz / 124 KiBps
Language                                 : Japanese
Default                                  : Yes
Forced                                   : No

Pasted: Dec 7, 2023, 6:54:10 am
Views: 28