get paid to paste

Daeng Phra Khanong 2022 ViE 1080p WEB-DL...

General
Unique ID                   : 283704192970839530839922428698260261863 (0xD56F70A7B6296955B29AD1E5C169CBE7)
Complete name               : Daeng Phra Khanong 2022 ViE 1080p WEB-DL H.264 AAC2.0-3cTWeB.mkv
Format                      : Matroska
Format version              : Version 4
File size                   : 4.06 GiB
Duration                    : 1 h 36 min
Overall bit rate            : 6 040 kb/s
Movie name                  : www.dwba.xyz
Encoded date                : UTC 2023-05-08 07:47:26
Writing application         : mkvmerge v52.0.0 ('Secret For The Mad') 64-bit
Writing library             : libebml v1.4.1 + libmatroska v1.6.2
Cover                       : Yes
Attachments                 : cover.jpg

Video
ID                          : 1
Format                      : AVC
Format/Info                 : Advanced Video Codec
Format profile              : [email protected]
Format settings             : CABAC / 4 Ref Frames
Format settings, CABAC      : Yes
Format settings, Reference  : 4 frames
Codec ID                    : V_MPEG4/ISO/AVC
Duration                    : 1 h 36 min
Bit rate                    : 5 780 kb/s
Width                       : 1 920 pixels
Height                      : 1 080 pixels
Display aspect ratio        : 16:9
Frame rate mode             : Constant
Frame rate                  : 25.000 FPS
Color space                 : YUV
Chroma subsampling          : 4:2:0
Bit depth                   : 8 bits
Scan type                   : Progressive
Bits/(Pixel*Frame)          : 0.111
Stream size                 : 3.89 GiB (96%)
Writing library             : x264 core 164 r3100 ed0f7a6
Encoding settings           : cabac=1 / ref=2 / deblock=1:0:0 / analyse=0x3:0x113 / me=hex / subme=6 / psy=1 / psy_rd=1.00:0.00 / mixed_ref=1 / me_range=16 / chroma_me=1 / trellis=1 / 8x8dct=1 / cqm=0 / deadzone=21,11 / fast_pskip=1 / chroma_qp_offset=-2 / threads=6 / lookahead_threads=1 / sliced_threads=0 / nr=0 / decimate=1 / interlaced=0 / bluray_compat=0 / constrained_intra=0 / bframes=3 / b_pyramid=2 / b_adapt=1 / b_bias=0 / direct=1 / weightb=1 / open_gop=0 / weightp=1 / keyint=250 / keyint_min=25 / scenecut=40 / intra_refresh=0 / rc_lookahead=30 / rc=crf / mbtree=1 / crf=22.0 / qcomp=0.60 / qpmin=0 / qpmax=69 / qpstep=4 / vbv_maxrate=62500 / vbv_bufsize=78125 / crf_max=0.0 / nal_hrd=none / filler=0 / ip_ratio=1.40 / aq=1:1.00
Language                    : English
Default                     : No
Forced                      : No
Color range                 : Limited
Color primaries             : BT.709
Transfer characteristics    : BT.709
Matrix coefficients         : BT.709

Audio #1
ID                          : 2
Format                      : AAC LC
Format/Info                 : Advanced Audio Codec Low Complexity
Codec ID                    : A_AAC-2
Duration                    : 1 h 36 min
Bit rate                    : 128 kb/s
Channel(s)                  : 2 channels
Channel layout              : L R
Sampling rate               : 48.0 kHz
Frame rate                  : 46.875 FPS (1024 SPF)
Compression mode            : Lossy
Delay relative to video     : -21 ms
Stream size                 : 88.2 MiB (2%)
Title                       : Thai | 3cTWeB
Language                    : Thai
Default                     : No
Forced                      : No

Audio #2
ID                          : 3
Format                      : AAC LC
Format/Info                 : Advanced Audio Codec Low Complexity
Codec ID                    : A_AAC-2
Duration                    : 1 h 36 min
Bit rate                    : 128 kb/s
Channel(s)                  : 2 channels
Channel layout              : L R
Sampling rate               : 48.0 kHz
Frame rate                  : 46.875 FPS (1024 SPF)
Compression mode            : Lossy
Delay relative to video     : -21 ms
Stream size                 : 88.2 MiB (2%)
Title                       : Thuyết Minh | 3cTWeB
Language                    : Vietnamese
Default                     : No
Forced                      : No

Text #1
ID                          : 4
Format                      : UTF-8
Codec ID                    : S_TEXT/UTF8
Codec ID/Info               : UTF-8 Plain Text
Duration                    : 1 h 28 min
Bit rate                    : 37 b/s
Count of elements           : 1102
Stream size                 : 24.2 KiB (0%)
Title                       : English | 3cTWeB
Language                    : English
Default                     : No
Forced                      : No

Text #2
ID                          : 5
Format                      : UTF-8
Codec ID                    : S_TEXT/UTF8
Codec ID/Info               : UTF-8 Plain Text
Duration                    : 1 h 28 min
Bit rate                    : 50 b/s
Count of elements           : 1154
Stream size                 : 32.5 KiB (0%)
Title                       : Tiếng Việt | 3cTWeB
Language                    : Vietnamese
Default                     : Yes
Forced                      : No

Pasted: May 8, 2023, 7:49:36 am
Views: 4