get paid to paste

Running.Man.E682.The.Battle.of.Card.Sharks.1080p.WEB-DL.H264.AAC-MMR

General
Unique ID                                : 31019296507851857389362809280204849978 (0x1756196528F8E44181BB9D978767433A)
Complete name                            : Running.Man.E682.The.Battle.of.Card.Sharks.1080p.WEB-DL.H264.AAC-MMR.mkv
Format                                   : Matroska
Format version                           : Version 4 / Version 2
File size                                : 2.21 GiB
Duration                                 : 1h 32mn
Overall bit rate mode                    : Variable
Overall bit rate                         : 3 399 Kbps
Movie name                               : www.dboxasian.com
Encoded date                             : UTC 2023-12-05 02:29:22
Writing application                      : mkvmerge v68.0.0.1 ('The Curtain') 64-bit
Writing library                          : libebml v1.4.2 + libmatroska v1.6.4

Video
ID                                       : 1
Format                                   : AVC
Format/Info                              : Advanced Video Codec
Format profile                           : [email protected]
Format settings, CABAC                   : Yes
Format settings, ReFrames                : 4 frames
Codec ID                                 : V_MPEG4/ISO/AVC
Duration                                 : 1h 32mn
Bit rate mode                            : Variable
Bit rate                                 : 3 297 Kbps
Maximum bit rate                         : 4 500 Kbps
Width                                    : 1 920 pixels
Height                                   : 1 080 pixels
Display aspect ratio                     : 16:9
Frame rate mode                          : Constant
Frame rate                               : 29.970 (30000/1001) fps
Original frame rate                      : 29.970 (29970/1000) fps
Color space                              : YUV
Chroma subsampling                       : 4:2:0
Bit depth                                : 8 bits
Scan type                                : Progressive
Bits/(Pixel*Frame)                       : 0.053
Stream size                              : 2.14 GiB (97%)
Writing library                          : VOLO1.4.1
Default                                  : No
Forced                                   : No

Audio
ID                                       : 2
Format                                   : AAC
Format/Info                              : Advanced Audio Codec
Format profile                           : LC
Codec ID                                 : A_AAC
Duration                                 : 1h 32mn
Bit rate                                 : 96.0 Kbps
Channel(s)                               : 2 channels
Channel positions                        : Front: L R
Sampling rate                            : 48.0 KHz
Frame rate                               : 46.875 fps (1024 spf)
Compression mode                         : Lossy
Stream size                              : 63.8 MiB (3%)
Language                                 : Korean
Default                                  : No
Forced                                   : No

Text #1
ID                                       : 3
Format                                   : ASS
Codec ID                                 : S_TEXT/ASS
Codec ID/Info                            : Advanced Sub Station Alpha
Duration                                 : 1h 32mn
Bit rate                                 : 303 bps
Count of elements                        : 3700
Compression mode                         : Lossless
Stream size                              : 206 KiB (0%)
Title                                    : English with Annotation
Language                                 : English
Default                                  : No
Forced                                   : No

Text #2
ID                                       : 4
Format                                   : ASS
Codec ID                                 : S_TEXT/ASS
Codec ID/Info                            : Advanced Sub Station Alpha
Duration                                 : 1h 32mn
Bit rate                                 : 303 bps
Count of elements                        : 3700
Compression mode                         : Lossless
Stream size                              : 206 KiB (0%)
Title                                    : English with Annotation at Top
Language                                 : English
Default                                  : No
Forced                                   : No

Text #3
ID                                       : 5
Format                                   : UTF-8
Codec ID                                 : S_TEXT/UTF8
Codec ID/Info                            : UTF-8 Plain Text
Duration                                 : 1h 32mn
Bit rate                                 : 117 bps
Count of elements                        : 2610
Stream size                              : 80.1 KiB (0%)
Title                                    : English
Language                                 : English
Default                                  : No
Forced                                   : No

Text #4
ID                                       : 6
Format                                   : UTF-8
Codec ID                                 : S_TEXT/UTF8
Codec ID/Info                            : UTF-8 Plain Text
Duration                                 : 1h 32mn
Bit rate                                 : 89 bps
Count of elements                        : 2598
Stream size                              : 60.8 KiB (0%)
Title                                    : Simplified Chinese
Language                                 : Chinese
Default                                  : No
Forced                                   : No

Text #5
ID                                       : 7
Format                                   : ASS
Codec ID                                 : S_TEXT/ASS
Codec ID/Info                            : Advanced Sub Station Alpha
Duration                                 : 1h 32mn
Bit rate                                 : 516 bps
Count of elements                        : 3703
Compression mode                         : Lossless
Stream size                              : 351 KiB (0%)
Title                                    : Thai with Annotation at Top
Language                                 : Thai
Default                                  : No
Forced                                   : No

Text #6
ID                                       : 8
Format                                   : UTF-8
Codec ID                                 : S_TEXT/UTF8
Codec ID/Info                            : UTF-8 Plain Text
Duration                                 : 1h 32mn
Bit rate                                 : 265 bps
Count of elements                        : 2613
Stream size                              : 180 KiB (0%)
Title                                    : Thai
Language                                 : Thai
Default                                  : No
Forced                                   : No

Pasted: Dec 5, 2023, 2:38:36 am
Views: 7