get paid to paste

Cek.Toko.Sebelah.2.2022.1080p.NF.WEB-DL.DDP5.1.x264-SEIKEL

General
Unique ID                      : 192187917016714978210966617975571987968 (0x90960BE30BA8BF2DC6D6723004C1BE00)
Complete name                  : Cek.Toko.Sebelah.2.2022.1080p.NF.WEB-DL.DDP5.1.x264-SEIKEL.mkv
Format                         : Matroska
Format version                 : Version 4
File size                      : 4.42 GiB
Duration                       : 1 h 52 min
Overall bit rate mode          : Variable
Overall bit rate               : 5 634 kb/s
Movie name                     : Cek.Toko.Sebelah.2.2022.1080p.NF.WEB-DL.DDP5.1.x264-SEIKEL
Writing application            : mkvmerge v73.0.0 ('25 or 6 to 4') 64-bit
Writing library                : libebml v1.4.4 + libmatroska v1.7.1

Video
ID                             : 1
Format                         : AVC
Format/Info                    : Advanced Video Codec
Format profile                 : Main@L4
Format settings                : CABAC / 3 Ref Frames
Format settings, CABAC         : Yes
Format settings, Reference fra : 3 frames
Codec ID                       : V_MPEG4/ISO/AVC
Duration                       : 1 h 52 min
Bit rate mode                  : Variable
Bit rate                       : 5 000 kb/s
Maximum bit rate               : 7 500 kb/s
Width                          : 1 920 pixels
Height                         : 1 080 pixels
Display aspect ratio           : 16:9
Frame rate mode                : Constant
Frame rate                     : 24.000 FPS
Color space                    : YUV
Chroma subsampling             : 4:2:0
Bit depth                      : 8 bits
Scan type                      : Progressive
Bits/(Pixel*Frame)             : 0.100
Stream size                    : 3.92 GiB (89%)
Writing library                : x264 core 148 r2727 7d026e8
Encoding settings              : cabac=1 / ref=3 / deblock=1:0:0 / analyse=0x1:0x111 / me=umh / subme=10 / psy=1 / psy_rd=1.00:0.00 / mixed_ref=1 / me_range=24 / chroma_me=1 / trellis=2 / 8x8dct=0 / cqm=0 / deadzone=21,11 / fast_pskip=1 / chroma_qp_offset=-2 / threads=6 / lookahead_threads=1 / sliced_threads=0 / nr=0 / decimate=1 / interlaced=0 / bluray_compat=0 / stitchable=1 / constrained_intra=0 / bframes=2 / b_pyramid=0 / b_adapt=2 / b_bias=0 / direct=3 / weightb=1 / open_gop=0 / weightp=2 / keyint=240 / keyint_min=121 / scenecut=0 / intra_refresh=0 / rc_lookahead=48 / rc=2pass / mbtree=1 / bitrate=5000 / ratetol=1.0 / qcomp=0.50 / qpmin=6 / qpmax=51 / qpstep=4 / cplxblur=20.0 / qblur=0.5 / vbv_maxrate=7500 / vbv_bufsize=10000 / nal_hrd=vbr / filler=0 / ip_ratio=1.40 / aq=1:1.00
Default                        : Yes
Forced                         : No

Audio
ID                             : 2
Format                         : E-AC-3
Format/Info                    : Enhanced AC-3
Commercial name                : Dolby Digital Plus
Codec ID                       : A_EAC3
Duration                       : 1 h 52 min
Bit rate mode                  : Constant
Bit rate                       : 640 kb/s
Channel(s)                     : 6 channels
Channel layout                 : L R C LFE Ls Rs
Sampling rate                  : 48.0 kHz
Frame rate                     : 31.250 FPS (1536 SPF)
Compression mode               : Lossy
Stream size                    : 514 MiB (11%)
Title                          : Bahasa Indonesia
Language                       : Indonesian
Service kind                   : Complete Main
Default                        : Yes
Forced                         : No

Text #1
ID                             : 3
Format                         : UTF-8
Codec ID                       : S_TEXT/UTF8
Codec ID/Info                  : UTF-8 Plain Text
Duration                       : 1 h 52 min
Bit rate                       : 65 b/s
Frame rate                     : 0.289 FPS
Count of elements              : 1944
Stream size                    : 53.5 KiB (0%)
Title                          : Bahasa Indonesia
Language                       : Indonesian
Default                        : Yes
Forced                         : No

Text #2
ID                             : 4
Format                         : UTF-8
Codec ID                       : S_TEXT/UTF8
Codec ID/Info                  : UTF-8 Plain Text
Duration                       : 1 h 52 min
Bit rate                       : 0 b/s
Frame rate                     : 0.004 FPS
Count of elements              : 29
Stream size                    : 602 Bytes (0%)
Title                          : Forced
Language                       : Indonesian
Default                        : No
Forced                         : Yes

Text #3
ID                             : 5
Format                         : UTF-8
Codec ID                       : S_TEXT/UTF8
Codec ID/Info                  : UTF-8 Plain Text
Duration                       : 1 h 51 min
Bit rate                       : 65 b/s
Frame rate                     : 0.307 FPS
Count of elements              : 2058
Stream size                    : 53.7 KiB (0%)
Title                          : English
Language                       : English
Default                        : No
Forced                         : No

Pasted: Apr 27, 2023, 9:09:57 am
Views: 3