get paid to paste

Rick.and.Morty.S04.1080p.AMZN.WEB-DL.DD+5.1.H.264-CtrlHD

General
Unique ID                                : 267855335463581587217343141543905612147 (0xC9830FA66EEA226804C7B77EA1D05173)
Complete name                            : Rick.and.Morty.S04E01.Edge.of.Tomorty.Rick.Die.Rickpeat.1080p.AMZN.WEB-DL.DD+5.1.H.264-CtrlHD.mkv
Format                                   : Matroska
Format version                           : Version 4 / Version 2
File size                                : 542 MiB
Duration                                 : 22mn 31s
Overall bit rate                         : 3 365 Kbps
Encoded date                             : UTC 2019-11-11 13:15:49
Writing application                      : mkvmerge v39.0.0 ('In The Waiting Line') 64-bit
Writing library                          : libebml v1.3.9 + libmatroska v1.5.2

Video
ID                                       : 1
Format                                   : AVC
Format/Info                              : Advanced Video Codec
Format profile                           : High@L4
Format settings, CABAC                   : Yes
Format settings, ReFrames                : 4 frames
Codec ID                                 : V_MPEG4/ISO/AVC
Duration                                 : 22mn 31s
Bit rate                                 : 2 723 Kbps
Width                                    : 1 920 pixels
Height                                   : 1 080 pixels
Display aspect ratio                     : 16:9
Frame rate mode                          : Constant
Frame rate                               : 23.976 (24000/1001) fps
Color space                              : YUV
Chroma subsampling                       : 4:2:0
Bit depth                                : 8 bits
Scan type                                : Progressive
Bits/(Pixel*Frame)                       : 0.055
Stream size                              : 439 MiB (81%)
Default                                  : Yes
Forced                                   : No
Color range                              : Limited
Color primaries                          : BT.709
Transfer characteristics                 : BT.709
Matrix coefficients                      : BT.709

Audio
ID                                       : 2
Format                                   : E-AC-3
Format/Info                              : Audio Coding 3
Format settings, Endianness              : Big
Codec ID                                 : A_EAC3
Duration                                 : 22mn 31s
Bit rate mode                            : Constant
Bit rate                                 : 640 Kbps
Channel(s)                               : 6 channels
Channel positions                        : Front: L C R, Side: L R, LFE
Sampling rate                            : 48.0 KHz
Frame rate                               : 187.500 fps (256 spf)
Compression mode                         : Lossy
Stream size                              : 103 MiB (19%)
Language                                 : English
Default                                  : Yes
Forced                                   : No

Text
ID                                       : 3
Format                                   : UTF-8
Codec ID                                 : S_TEXT/UTF8
Codec ID/Info                            : UTF-8 Plain Text
Duration                                 : 22mn 28s
Bit rate                                 : 110 bps
Count of elements                        : 574
Stream size                              : 18.2 KiB (0%)
Title                                    : SDH
Language                                 : English
Default                                  : No
Forced                                   : No

Pasted: Jun 6, 2020, 1:05:06 pm
Views: 32