get paid to paste

Pandora.Beneath.the.Paradise.S01.1080p.DSNP.WEB-DL.AAC2.0.H264-HHWEB

General
Unique ID                                : 245874868951343679823452711934407391145 (0xB8F9C6FB12A7DED17F374BD53FCAB7A9)
Complete name                            : Pandora.Beneath.the.Paradise.S01.1080p.DSNP.WEB-DL.AAC2.0.H264-HHWEB\Pandora.Beneath.the.Paradise.S01E01.1080p.DSNP.WEB-DL.AAC2.0.H264-HHWEB.mkv
Format                                   : Matroska
Format version                           : Version 4 / Version 2
File size                                : 3.00 GiB
Duration                                 : 1h 2mn
Overall bit rate mode                    : Variable
Overall bit rate                         : 6 891 Kbps
Encoded date                             : UTC 2023-03-12 06:39:06
Writing application                      : mkvmerge v74.0.0 ('You Oughta Know') 64-bit
Writing library                          : libebml v1.4.4 + libmatroska v1.7.1

Video
ID                                       : 1
Format                                   : AVC
Format/Info                              : Advanced Video Codec
Format profile                           : High@L4
Format settings, CABAC                   : Yes
Format settings, ReFrames                : 4 frames
Codec ID                                 : V_MPEG4/ISO/AVC
Duration                                 : 1h 2mn
Bit rate mode                            : Variable
Bit rate                                 : 6 762 Kbps
Maximum bit rate                         : 12.7 Mbps
Width                                    : 1 920 pixels
Height                                   : 1 080 pixels
Display aspect ratio                     : 16:9
Frame rate mode                          : Constant
Frame rate                               : 23.976 (24000/1001) fps
Color space                              : YUV
Chroma subsampling                       : 4:2:0
Bit depth                                : 8 bits
Scan type                                : Progressive
Bits/(Pixel*Frame)                       : 0.136
Stream size                              : 2.94 GiB (98%)
Default                                  : Yes
Forced                                   : No
Color range                              : Limited
Color primaries                          : BT.709
Transfer characteristics                 : BT.709
Matrix coefficients                      : BT.709

Audio
ID                                       : 2
Format                                   : AAC
Format/Info                              : Advanced Audio Codec
Format profile                           : LC
Codec ID                                 : A_AAC
Duration                                 : 1h 2mn
Bit rate                                 : 125 Kbps
Channel(s)                               : 2 channels
Channel positions                        : Front: L R
Sampling rate                            : 48.0 KHz
Frame rate                               : 46.875 fps (1024 spf)
Compression mode                         : Lossy
Stream size                              : 55.8 MiB (2%)
Title                                    : 한국어 [AAC 2.0]
Language                                 : Korean
Default                                  : Yes
Forced                                   : No

Text #1
ID                                       : 3
Format                                   : UTF-8
Codec ID                                 : S_TEXT/UTF8
Codec ID/Info                            : UTF-8 Plain Text
Duration                                 : 1h 1mn
Bit rate                                 : 55 bps
Count of elements                        : 712
Stream size                              : 24.7 KiB (0%)
Title                                    : English [SDH]
Language                                 : English
Default                                  : No
Forced                                   : No

Text #2
ID                                       : 4
Format                                   : UTF-8
Codec ID                                 : S_TEXT/UTF8
Codec ID/Info                            : UTF-8 Plain Text
Duration                                 : 1h 1mn
Bit rate                                 : 47 bps
Count of elements                        : 690
Stream size                              : 21.3 KiB (0%)
Title                                    : 日本語
Language                                 : Japanese
Default                                  : No
Forced                                   : No

Text #3
ID                                       : 5
Format                                   : UTF-8
Codec ID                                 : S_TEXT/UTF8
Codec ID/Info                            : UTF-8 Plain Text
Duration                                 : 1h 1mn
Bit rate                                 : 85 bps
Count of elements                        : 1046
Stream size                              : 38.9 KiB (0%)
Title                                    : 한국어 [SDH]
Language                                 : Korean
Default                                  : No
Forced                                   : No

Text #4
ID                                       : 6
Format                                   : UTF-8
Codec ID                                 : S_TEXT/UTF8
Codec ID/Info                            : UTF-8 Plain Text
Duration                                 : 1h 1mn
Bit rate                                 : 38 bps
Count of elements                        : 618
Stream size                              : 17.5 KiB (0%)
Title                                    : Chinese (Hong Kong Sar China)
Language                                 : Chinese
Default                                  : No
Forced                                   : No

Text #5
ID                                       : 7
Format                                   : UTF-8
Codec ID                                 : S_TEXT/UTF8
Codec ID/Info                            : UTF-8 Plain Text
Duration                                 : 1h 1mn
Bit rate                                 : 43 bps
Count of elements                        : 618
Stream size                              : 19.6 KiB (0%)
Title                                    : 中文 (繁體)
Language                                 : Chinese
Default                                  : Yes
Forced                                   : No

Menu
00:00:18.018                             : en:Intro
00:00:55.013                             : en:Scene 1
01:02:17.321                             : en:Credits

Pasted: Oct 1, 2023, 11:06:18 pm
Views: 4