get paid to paste

Special.Agent.1080p.AMZN.WEB-DL.DDP2.0.H.264-MrHulk

General
Unique ID                                : 19204600149676887498538400510827529577 (0xE72ABE422BDB1DC81940899A3AB8569)
Complete name                            : Special.Agent.1080p.AMZN.WEB-DL.DDP2.0.H.264-MrHulk.mkv
Format                                   : Matroska
Format version                           : Version 4 / Version 2
File size                                : 5.97 GiB
Duration                                 : 1h 34mn
Overall bit rate                         : 9 028 Kbps
Movie name                               : www.dboxasian.com
Encoded date                             : UTC 2023-10-06 01:37:38
Writing application                      : mkvmerge v68.0.0.1 ('The Curtain') 64-bit
Writing library                          : libebml v1.4.2 + libmatroska v1.6.4

Video
ID                                       : 1
Format                                   : AVC
Format/Info                              : Advanced Video Codec
Format profile                           : High@L4
Format settings, CABAC                   : Yes
Format settings, ReFrames                : 4 frames
Codec ID                                 : V_MPEG4/ISO/AVC
Duration                                 : 1h 34mn
Bit rate mode                            : Constant
Bit rate                                 : 8 802 Kbps
Nominal bit rate                         : 10 000 Kbps
Width                                    : 1 920 pixels
Height                                   : 816 pixels
Display aspect ratio                     : 2.35:1
Frame rate mode                          : Constant
Frame rate                               : 23.976 (24000/1001) fps
Color space                              : YUV
Chroma subsampling                       : 4:2:0
Bit depth                                : 8 bits
Scan type                                : Progressive
Bits/(Pixel*Frame)                       : 0.234
Stream size                              : 5.82 GiB (97%)
Default                                  : Yes
Forced                                   : No
Color range                              : Limited
Color primaries                          : BT.709
Transfer characteristics                 : BT.709
Matrix coefficients                      : BT.709

Audio
ID                                       : 2
Format                                   : E-AC-3
Format/Info                              : Audio Coding 3
Format settings, Endianness              : Big
Codec ID                                 : A_EAC3
Duration                                 : 1h 34mn
Bit rate mode                            : Constant
Bit rate                                 : 224 Kbps
Channel(s)                               : 2 channels
Channel positions                        : Front: L R
Sampling rate                            : 48.0 KHz
Frame rate                               : 187.500 fps (256 spf)
Compression mode                         : Lossy
Stream size                              : 152 MiB (2%)
Language                                 : Korean
Default                                  : Yes
Forced                                   : No

Text
ID                                       : 3
Format                                   : UTF-8
Codec ID                                 : S_TEXT/UTF8
Codec ID/Info                            : UTF-8 Plain Text
Duration                                 : 1h 34mn
Bit rate                                 : 14 bps
Count of elements                        : 445
Stream size                              : 9.80 KiB (0%)
Title                                    : SDH
Language                                 : English
Default                                  : No
Forced                                   : No

Pasted: Oct 6, 2023, 1:42:50 am
Views: 9