get paid to paste

Killers.Of.The.Flower.Moon.2023.1080p.WEB.H264-LACOP

General
Unique ID                                : 190173679388166738461087676040990974299 (0x8F121E4DF116DB239B504D2D0CE8615B)
Complete name                            : \killers.of.the.flower.moon.2023.1080p.web.h264-largeaquaticchameleonofphilosophy.mkv
Format                                   : Matroska
Format version                           : Version 4 / Version 2
File size                                : 13.3 GiB
Duration                                 : 3h 28mn
Overall bit rate                         : 9 149 Kbps
Writing application                      : mkvmerge v77.0 ('Elemental') 64-bit
Writing library                          : libebml v1.4.4 + libmatroska v1.7.1

Video
ID                                       : 1
Format                                   : AVC
Format/Info                              : Advanced Video Codec
Format profile                           : High@L4
Format settings, CABAC                   : Yes
Format settings, ReFrames                : 4 frames
Codec ID                                 : V_MPEG4/ISO/AVC
Duration                                 : 3h 28mn
Bit rate mode                            : Constant
Bit rate                                 : 8 504 Kbps
Nominal bit rate                         : 10 000 Kbps
Width                                    : 1 920 pixels
Height                                   : 800 pixels
Display aspect ratio                     : 2.40:1
Frame rate mode                          : Constant
Frame rate                               : 23.976 (24000/1001) fps
Color space                              : YUV
Chroma subsampling                       : 4:2:0
Bit depth                                : 8 bits
Scan type                                : Progressive
Bits/(Pixel*Frame)                       : 0.231
Stream size                              : 12.4 GiB (93%)
Default                                  : Yes
Forced                                   : No
Color range                              : Limited
Color primaries                          : BT.709
Transfer characteristics                 : BT.709
Matrix coefficients                      : BT.709

Audio
ID                                       : 2
Format                                   : E-AC-3
Format/Info                              : Audio Coding 3
Format settings, Endianness              : Big
Codec ID                                 : A_EAC3
Duration                                 : 3h 28mn
Bit rate mode                            : Constant
Bit rate                                 : 640 Kbps
Channel(s)                               : 6 channels
Channel positions                        : Front: L C R, Side: L R, LFE
Sampling rate                            : 48.0 KHz
Frame rate                               : 187.500 fps (256 spf)
Compression mode                         : Lossy
Stream size                              : 953 MiB (7%)
Language                                 : English
Default                                  : Yes
Forced                                   : No

Text #1
ID                                       : 3
Format                                   : ASS
Codec ID                                 : S_TEXT/ASS
Codec ID/Info                            : Advanced Sub Station Alpha
Duration                                 : 2h 48mn
Bit rate                                 : 2 bps
Count of elements                        : 72
Compression mode                         : Lossless
Stream size                              : 3.13 KiB (0%)
Title                                    : English [Forced]
Language                                 : English
Default                                  : Yes
Forced                                   : Yes

Text #2
ID                                       : 4
Format                                   : ASS
Codec ID                                 : S_TEXT/ASS
Codec ID/Info                            : Advanced Sub Station Alpha
Duration                                 : 3h 17mn
Bit rate                                 : 109 bps
Count of elements                        : 2735
Compression mode                         : Lossless
Stream size                              : 158 KiB (0%)
Title                                    : English [SDH]
Language                                 : English
Default                                  : No
Forced                                   : No

Text #3
ID                                       : 5
Format                                   : ASS
Codec ID                                 : S_TEXT/ASS
Codec ID/Info                            : Advanced Sub Station Alpha
Duration                                 : 3h 24mn
Bit rate                                 : 79 bps
Count of elements                        : 2000
Compression mode                         : Lossless
Stream size                              : 119 KiB (0%)
Title                                    : Dutch
Language                                 : Dutch
Default                                  : No
Forced                                   : No

Text #4
ID                                       : 6
Format                                   : ASS
Codec ID                                 : S_TEXT/ASS
Codec ID/Info                            : Advanced Sub Station Alpha
Duration                                 : 3h 24mn
Bit rate                                 : 91 bps
Count of elements                        : 2412
Compression mode                         : Lossless
Stream size                              : 138 KiB (0%)
Title                                    : European Spanish
Language                                 : Spanish
Default                                  : No
Forced                                   : No

Text #5
ID                                       : 7
Format                                   : ASS
Codec ID                                 : S_TEXT/ASS
Codec ID/Info                            : Advanced Sub Station Alpha
Duration                                 : 3h 24mn
Bit rate                                 : 85 bps
Count of elements                        : 2513
Compression mode                         : Lossless
Stream size                              : 129 KiB (0%)
Title                                    : French
Language                                 : French
Default                                  : No
Forced                                   : No

Text #6
ID                                       : 8
Format                                   : ASS
Codec ID                                 : S_TEXT/ASS
Codec ID/Info                            : Advanced Sub Station Alpha
Duration                                 : 3h 24mn
Bit rate                                 : 86 bps
Count of elements                        : 2517
Compression mode                         : Lossless
Stream size                              : 129 KiB (0%)
Title                                    : French Canadian
Language                                 : French
Default                                  : No
Forced                                   : No

Text #7
ID                                       : 9
Format                                   : ASS
Codec ID                                 : S_TEXT/ASS
Codec ID/Info                            : Advanced Sub Station Alpha
Duration                                 : 3h 24mn
Bit rate                                 : 87 bps
Count of elements                        : 2543
Compression mode                         : Lossless
Stream size                              : 131 KiB (0%)
Title                                    : German
Language                                 : German
Default                                  : No
Forced                                   : No

Text #8
ID                                       : 10
Format                                   : ASS
Codec ID                                 : S_TEXT/ASS
Codec ID/Info                            : Advanced Sub Station Alpha
Duration                                 : 3h 24mn
Bit rate                                 : 188 bps
Count of elements                        : 2396
Compression mode                         : Lossless
Stream size                              : 282 KiB (0%)
Title                                    : Hindi
Language                                 : Hindi
Default                                  : No
Forced                                   : No

Text #9
ID                                       : 11
Format                                   : ASS
Codec ID                                 : S_TEXT/ASS
Codec ID/Info                            : Advanced Sub Station Alpha
Duration                                 : 3h 24mn
Bit rate                                 : 92 bps
Count of elements                        : 2417
Compression mode                         : Lossless
Stream size                              : 138 KiB (0%)
Title                                    : Latin America Spanish
Language                                 : Spanish
Default                                  : No
Forced                                   : No

Text #10
ID                                       : 12
Format                                   : ASS
Codec ID                                 : S_TEXT/ASS
Codec ID/Info                            : Advanced Sub Station Alpha
Duration                                 : 3h 24mn
Bit rate                                 : 89 bps
Count of elements                        : 2381
Compression mode                         : Lossless
Stream size                              : 135 KiB (0%)
Title                                    : Polish
Language                                 : Polish
Default                                  : No
Forced                                   : No

Text #11
ID                                       : 13
Format                                   : ASS
Codec ID                                 : S_TEXT/ASS
Codec ID/Info                            : Advanced Sub Station Alpha
Duration                                 : 3h 24mn
Bit rate                                 : 87 bps
Count of elements                        : 2352
Compression mode                         : Lossless
Stream size                              : 131 KiB (0%)
Title                                    : Portuguese Brazilian
Language                                 : Portuguese
Default                                  : No
Forced                                   : No

Text #12
ID                                       : 14
Format                                   : ASS
Codec ID                                 : S_TEXT/ASS
Codec ID/Info                            : Advanced Sub Station Alpha
Duration                                 : 3h 24mn
Bit rate                                 : 90 bps
Count of elements                        : 2396
Compression mode                         : Lossless
Stream size                              : 136 KiB (0%)
Title                                    : Swedish
Language                                 : Swedish
Default                                  : No
Forced                                   : No

Text #13
ID                                       : 15
Format                                   : ASS
Codec ID                                 : S_TEXT/ASS
Codec ID/Info                            : Advanced Sub Station Alpha
Duration                                 : 3h 24mn
Bit rate                                 : 208 bps
Count of elements                        : 2396
Compression mode                         : Lossless
Stream size                              : 312 KiB (0%)
Title                                    : Tamil
Language                                 : Tamil
Default                                  : No
Forced                                   : No

Text #14
ID                                       : 16
Format                                   : ASS
Codec ID                                 : S_TEXT/ASS
Codec ID/Info                            : Advanced Sub Station Alpha
Duration                                 : 3h 24mn
Bit rate                                 : 204 bps
Count of elements                        : 2395
Compression mode                         : Lossless
Stream size                              : 307 KiB (0%)
Title                                    : Telugu
Language                                 : Telugu
Default                                  : No
Forced                                   : No

Pasted: Dec 6, 2023, 6:48:29 am
Views: 2