get paid to paste

Iru Dhuruvam (2023) S02 1080p Multi WEB-DL...

General
Unique ID                   : 47561057619272936910414939860157862859 (0x23C7ED2F780C0834F772756FFE5413CB)
Complete name               : Iru.Dhuruvam.(2023).S02.1080p.Multi.WEB-DL.AVC.AAC.2.0.ESub-DusIcTv\Iru Dhuruvam - S02E01 - Episode 1.mkv
Format                      : Matroska
Format version              : Version 4
File size                   : 892 MiB
Duration                    : 33 min 56 s
Overall bit rate mode       : Variable
Overall bit rate            : 3 676 kb/s
Encoded date                : UTC 2023-02-24 04:03:52
Writing application         : mkvmerge v62.0.0 ('Apollo') 64-bit
Writing library             : libebml v1.4.2 + libmatroska v1.6.4
Attachments                 : dusictvbwt.png / irud_dusictv.jpg

Video
ID                          : 1
Format                      : AVC
Format/Info                 : Advanced Video Codec
Format profile              : High@L4
Format settings             : CABAC / 3 Ref Frames
Format settings, CABAC      : Yes
Format settings, Reference  : 3 frames
Format settings, GOP        : M=4, N=50
Codec ID                    : V_MPEG4/ISO/AVC
Duration                    : 33 min 56 s
Bit rate mode               : Variable
Bit rate                    : 2 772 kb/s
Maximum bit rate            : 5 000 kb/s
Width                       : 1 920 pixels
Height                      : 1 080 pixels
Display aspect ratio        : 16:9
Frame rate mode             : Constant
Frame rate                  : 25.000 FPS
Standard                    : Component
Color space                 : YUV
Chroma subsampling          : 4:2:0
Bit depth                   : 8 bits
Scan type                   : Progressive
Bits/(Pixel*Frame)          : 0.053
Stream size                 : 673 MiB (75%)
Title                       : DusIcTv @ bwtorrents.tv
Default                     : Yes
Forced                      : No
Color range                 : Full
Color primaries             : BT.709
Transfer characteristics    : BT.709
Matrix coefficients         : BT.709

Audio #1
ID                          : 2
Format                      : AAC LC
Format/Info                 : Advanced Audio Codec Low Complexity
Codec ID                    : A_AAC-2
Duration                    : 33 min 56 s
Bit rate                    : 128 kb/s
Channel(s)                  : 2 channels
Channel layout              : L R
Sampling rate               : 48.0 kHz
Frame rate                  : 46.875 FPS (1024 SPF)
Compression mode            : Lossy
Stream size                 : 31.1 MiB (3%)
Title                       : DusIcTv @ bwtorrents.tv
Language                    : Hindi
Default                     : Yes
Forced                      : No

Audio #2
ID                          : 3
Format                      : AAC LC
Format/Info                 : Advanced Audio Codec Low Complexity
Codec ID                    : A_AAC-2
Duration                    : 33 min 56 s
Bit rate                    : 128 kb/s
Channel(s)                  : 2 channels
Channel layout              : L R
Sampling rate               : 48.0 kHz
Frame rate                  : 46.875 FPS (1024 SPF)
Compression mode            : Lossy
Stream size                 : 31.1 MiB (3%)
Title                       : DusIcTv @ bwtorrents.tv
Language                    : Bengali
Default                     : Yes
Forced                      : No

Audio #3
ID                          : 4
Format                      : AAC LC
Format/Info                 : Advanced Audio Codec Low Complexity
Codec ID                    : A_AAC-2
Duration                    : 33 min 56 s
Bit rate                    : 128 kb/s
Channel(s)                  : 2 channels
Channel layout              : L R
Sampling rate               : 48.0 kHz
Frame rate                  : 46.875 FPS (1024 SPF)
Compression mode            : Lossy
Stream size                 : 31.1 MiB (3%)
Title                       : DusIcTv @ bwtorrents.tv
Language                    : Kannada
Default                     : Yes
Forced                      : No

Audio #4
ID                          : 5
Format                      : AAC LC
Format/Info                 : Advanced Audio Codec Low Complexity
Codec ID                    : A_AAC-2
Duration                    : 33 min 56 s
Bit rate                    : 128 kb/s
Channel(s)                  : 2 channels
Channel layout              : L R
Sampling rate               : 48.0 kHz
Frame rate                  : 46.875 FPS (1024 SPF)
Compression mode            : Lossy
Stream size                 : 31.1 MiB (3%)
Title                       : DusIcTv @ bwtorrents.tv
Language                    : Malayalam
Default                     : Yes
Forced                      : No

Audio #5
ID                          : 6
Format                      : AAC LC
Format/Info                 : Advanced Audio Codec Low Complexity
Codec ID                    : A_AAC-2
Duration                    : 33 min 56 s
Bit rate                    : 128 kb/s
Channel(s)                  : 2 channels
Channel layout              : L R
Sampling rate               : 48.0 kHz
Frame rate                  : 46.875 FPS (1024 SPF)
Compression mode            : Lossy
Stream size                 : 31.1 MiB (3%)
Title                       : DusIcTv @ bwtorrents.tv
Language                    : Marathi
Default                     : Yes
Forced                      : No

Audio #6
ID                          : 7
Format                      : AAC LC
Format/Info                 : Advanced Audio Codec Low Complexity
Codec ID                    : A_AAC-2
Duration                    : 33 min 56 s
Bit rate                    : 128 kb/s
Channel(s)                  : 2 channels
Channel layout              : L R
Sampling rate               : 48.0 kHz
Frame rate                  : 46.875 FPS (1024 SPF)
Compression mode            : Lossy
Stream size                 : 31.1 MiB (3%)
Title                       : DusIcTv @ bwtorrents.tv
Language                    : Tamil
Default                     : Yes
Forced                      : No

Audio #7
ID                          : 8
Format                      : AAC LC
Format/Info                 : Advanced Audio Codec Low Complexity
Codec ID                    : A_AAC-2
Duration                    : 33 min 56 s
Bit rate                    : 128 kb/s
Channel(s)                  : 2 channels
Channel layout              : L R
Sampling rate               : 48.0 kHz
Frame rate                  : 46.875 FPS (1024 SPF)
Compression mode            : Lossy
Stream size                 : 31.1 MiB (3%)
Title                       : DusIcTv @ bwtorrents.tv
Language                    : Telugu
Default                     : Yes
Forced                      : No

Text
ID                          : 9
Format                      : UTF-8
Codec ID                    : S_TEXT/UTF8
Codec ID/Info               : UTF-8 Plain Text
Duration                    : 31 min 6 s
Bit rate                    : 73 b/s
Count of elements           : 507
Stream size                 : 16.8 KiB (0%)
Title                       : DusIcTv @ bwtorrents.tv
Language                    : English
Default                     : Yes
Forced                      : No

Pasted: Feb 25, 2023, 1:27:47 am
Views: 21