get paid to paste

Detective.Conan.Black.Iron.Submarine.2023.1080p.JPN.Blu-ray.Remux.AVC.TrueHD.5.1-Dream

General
Unique ID                                : 16972498558293677420057946562261757288 (0xCC4C8C93994BE40F250A67F35C12D68)
Complete name                            : \Detective.Conan.Black.Iron.Submarine.2023.1080p.JPN.Blu-ray.Remux.AVC.TrueHD.5.1-Dream.mkv
Format                                   : Matroska
Format version                           : Version 2
File size                                : 20.7 GiB
Duration                                 : 1h 49mn
Overall bit rate mode                    : Variable
Overall bit rate                         : 27.0 Mbps
Movie name                               : 劇場版名探偵コナン 黒鉄の魚影
Encoded date                             : UTC 2023-12-02 11:32:50
Writing application                      : MakeMKV v1.16.5 win(x64-release)
Writing library                          : libmakemkv v1.16.5 (1.3.10/1.5.2) win(x64-release)
Original source medium                   : Blu-ray

Video
ID                                       : 1
ID in the original source medium         : 4113 (0x1011)
Format                                   : AVC
Format/Info                              : Advanced Video Codec
Format profile                           : [email protected]
Format settings, CABAC                   : Yes
Format settings, ReFrames                : 4 frames
Codec ID                                 : V_MPEG4/ISO/AVC
Duration                                 : 1h 49mn
Bit rate mode                            : Variable
Bit rate                                 : 21.7 Mbps
Maximum bit rate                         : 40.0 Mbps
Width                                    : 1 920 pixels
Height                                   : 1 080 pixels
Display aspect ratio                     : 16:9
Frame rate mode                          : Constant
Frame rate                               : 23.976 (24000/1001) fps
Color space                              : YUV
Chroma subsampling                       : 4:2:0
Bit depth                                : 8 bits
Scan type                                : Progressive
Bits/(Pixel*Frame)                       : 0.437
Stream size                              : 16.6 GiB (80%)
Language                                 : English
Default                                  : No
Forced                                   : No

Audio #1
ID                                       : 2
ID in the original source medium         : 4352 (0x1100)
Format                                   : TrueHD
Codec ID                                 : A_TRUEHD
Duration                                 : 1h 49mn
Bit rate mode                            : Variable
Bit rate                                 : 1 463 Kbps
Maximum bit rate                         : 3 093 Kbps
Channel(s)                               : 6 channels
Channel positions                        : Front: L C R, Side: L R, LFE
Sampling rate                            : 48.0 KHz
Frame rate                               : 1 200.000 fps (40 spf)
Bit depth                                : 24 bits
Compression mode                         : Lossless
Stream size                              : 1.12 GiB (5%)
Title                                    : 环绕声 5.1
Language                                 : Japanese
Default                                  : Yes
Forced                                   : No

Audio #2
ID                                       : 3
ID in the original source medium         : 4352 (0x1100)
Format                                   : AC-3
Format/Info                              : Audio Coding 3
Mode extension                           : CM (complete main)
Format settings, Endianness              : Big
Codec ID                                 : A_AC3
Duration                                 : 1h 49mn
Bit rate mode                            : Constant
Bit rate                                 : 448 Kbps
Channel(s)                               : 6 channels
Channel positions                        : Front: L C R, Side: L R, LFE
Sampling rate                            : 48.0 KHz
Frame rate                               : 31.250 fps (1536 spf)
Compression mode                         : Lossy
Stream size                              : 351 MiB (2%)
Title                                    : 环绕声 5.1
Language                                 : Japanese
Default                                  : No
Forced                                   : No

Audio #3
ID                                       : 4
ID in the original source medium         : 4353 (0x1101)
Format                                   : PCM
Codec ID                                 : A_PCM/INT/LIT
Duration                                 : 1h 49mn
Bit rate mode                            : Constant
Bit rate                                 : 1 536 Kbps
Channel(s)                               : 2 channels
Sampling rate                            : 48.0 KHz
Frame rate                               : 30.000 fps (1600 spf)
Bit depth                                : 16 bits
Stream size                              : 1.18 GiB (6%)
Title                                    : 立体声
Language                                 : Japanese
Default                                  : No
Forced                                   : No

Audio #4
ID                                       : 5
ID in the original source medium         : 4354 (0x1102)
Format                                   : PCM
Codec ID                                 : A_PCM/INT/LIT
Duration                                 : 1h 49mn
Bit rate mode                            : Constant
Bit rate                                 : 1 536 Kbps
Channel(s)                               : 2 channels
Sampling rate                            : 48.0 KHz
Frame rate                               : 30.000 fps (1600 spf)
Bit depth                                : 16 bits
Stream size                              : 1.18 GiB (6%)
Title                                    : 立体声
Language                                 : Japanese
Default                                  : No
Forced                                   : No

Text #1
ID                                       : 6
ID in the original source medium         : 4608 (0x1200)
Format                                   : PGS
Codec ID                                 : S_HDMV/PGS
Codec ID/Info                            : Picture based subtitle format used on BDs/HD-DVDs
Duration                                 : 1h 49mn
Bit rate                                 : 254 Kbps
Count of elements                        : 9593
Stream size                              : 198 MiB (1%)
Language                                 : Japanese
Default                                  : No
Forced                                   : No

Text #2
ID                                       : 8
ID in the original source medium         : 4609 (0x1201)
Format                                   : PGS
Codec ID                                 : S_HDMV/PGS
Codec ID/Info                            : Picture based subtitle format used on BDs/HD-DVDs
Duration                                 : 1h 49mn
Bit rate                                 : 14.3 Kbps
Count of elements                        : 3206
Stream size                              : 11.1 MiB (0%)
Language                                 : Chinese
Default                                  : No
Forced                                   : No

Menu
00:00:00.000                             : ja:章节 01
00:01:56.324                             : ja:章节 02
00:08:18.206                             : ja:章节 03
00:11:08.250                             : ja:章节 04
00:18:35.906                             : ja:章节 05
00:24:09.990                             : ja:章节 06
00:31:08.741                             : ja:章节 07
00:35:17.448                             : ja:章节 08
00:46:07.598                             : ja:章节 09
00:49:49.653                             : ja:章节 10
00:56:20.126                             : ja:章节 11
01:04:23.860                             : ja:章节 12
01:12:38.062                             : ja:章节 13
01:17:48.955                             : ja:章节 14
01:25:54.315                             : ja:章节 15
01:30:58.911                             : ja:章节 16
01:34:49.517                             : ja:章节 17
01:37:57.580                             : ja:章节 18
01:42:25.139                             : ja:章节 19
01:49:22.556                             : ja:章节 20

Pasted: Dec 6, 2023, 1:17:37 am
Views: 80