get paid to paste

Dinosaurs (2023) 1080p AMZN WEB-DL x264 DD+ 5.1

General
Complete name                            : Dinosaurs (2023) 1080p AMZN WEB-DL x264 DD+ 5.1\Dinosaurs (2023) 1080p AMZN WEB-DL x264 DD+ 5.1.mp4
Format                                   : MPEG-4
Format profile                           : Base Media
Codec ID                                 : isom (isom/dby1/iso2/avc1/mp41)
File size                                : 9.79 GiB
Duration                                 : 2h 28mn
Overall bit rate mode                    : Variable
Overall bit rate                         : 9 447 Kbps
Collection                               : Dinosaurs
Track name                               : Dinosaurs
Recorded date                            : 2023
Writing application                      : Lavf60.3.100
Cover                                    : Yes

Video
ID                                       : 1
Format                                   : AVC
Format/Info                              : Advanced Video Codec
Format profile                           : High@L4
Format settings, CABAC                   : Yes
Format settings, ReFrames                : 4 frames
Codec ID                                 : avc1
Codec ID/Info                            : Advanced Video Coding
Duration                                 : 2h 28mn
Duration_LastFrame                       : -31ms
Bit rate mode                            : Constant
Bit rate                                 : 8 801 Kbps
Nominal bit rate                         : 10 000 Kbps
Width                                    : 1 920 pixels
Height                                   : 816 pixels
Display aspect ratio                     : 2.35:1
Original display aspect ratio            : 2.35:1
Frame rate mode                          : Constant
Frame rate                               : 24.000 fps
Color space                              : YUV
Chroma subsampling                       : 4:2:0
Bit depth                                : 8 bits
Scan type                                : Progressive
Bits/(Pixel*Frame)                       : 0.234
Stream size                              : 9.12 GiB (93%)
Color range                              : Limited
Color primaries                          : BT.709
Transfer characteristics                 : BT.709
Matrix coefficients                      : BT.709

Audio
ID                                       : 3
Format                                   : E-AC-3
Format/Info                              : Audio Coding 3
Format settings, Endianness              : Big
Codec ID                                 : ec-3
Duration                                 : 2h 28mn
Bit rate mode                            : Constant
Bit rate                                 : 640 Kbps
Channel(s)                               : 6 channels
Channel positions                        : Front: L C R, Side: L R, LFE
Sampling rate                            : 48.0 KHz
Frame rate                               : 187.500 fps (256 spf)
Bit depth                                : 16 bits
Compression mode                         : Lossy
Stream size                              : 679 MiB (7%)
Language                                 : Tamil
Default                                  : Yes
Alternate group                          : 1

Text
ID                                       : 4
Format                                   : Timed Text
Muxing mode                              : sbtl
Codec ID                                 : tx3g
Duration                                 : 2h 27mn
Bit rate mode                            : Variable
Bit rate                                 : 87 bps
Stream size                              : 94.0 KiB (0%)
Title                                    : English [CC]
Language                                 : English
Default                                  : Yes
Forced                                   : No
Alternate group                          : 3

Pasted: Sep 25, 2023, 2:39:23 am
Views: 3