get paid to paste

The Horsemen 1971 BDRIP 1080p x264-UUU

General
Unique ID                                : 246662248509313067660182438069390662340 (0xB9916BCA4958B884EF01F0371239DAC4)
Complete name                            : The Horsemen 1971 BDRIP 1080p x264-UUU.mkv
Format                                   : Matroska
Format version                           : Version 4 / Version 2
File size                                : 2.76 GiB
Duration                                 : 1h 47mn
Overall bit rate                         : 3 693 Kbps
Movie name                               : www.dboxasian.com
Encoded date                             : UTC 2023-11-30 15:41:14 / UTC 
Writing application                      : mkvmerge v68.0.0.1 ('The Curtain') 64-bit
Writing library                          : libebml v1.4.2 + libmatroska v1.6.4 / Lavf55.12.0

Video
ID                                       : 1
Format                                   : AVC
Format/Info                              : Advanced Video Codec
Format profile                           : [email protected]
Format settings, CABAC                   : Yes
Format settings, ReFrames                : 4 frames
Codec ID                                 : V_MPEG4/ISO/AVC
Duration                                 : 1h 47mn
Bit rate                                 : 3 456 Kbps
Width                                    : 1 920 pixels
Height                                   : 1 080 pixels
Display aspect ratio                     : 16:9
Frame rate mode                          : Constant
Frame rate                               : 23.976 (24000/1001) fps
Color space                              : YUV
Chroma subsampling                       : 4:2:0
Bit depth                                : 8 bits
Scan type                                : Progressive
Bits/(Pixel*Frame)                       : 0.070
Stream size                              : 2.54 GiB (92%)
Writing library                          : x264 core 142 r2479 dd79a61
Encoding settings                        : cabac=1 / ref=4 / deblock=1:-1:-1 / analyse=0x3:0x133 / me=umh / subme=9 / psy=1 / psy_rd=1.00:0.15 / mixed_ref=1 / me_range=16 / chroma_me=1 / trellis=2 / 8x8dct=1 / cqm=0 / deadzone=21,11 / fast_pskip=1 / chroma_qp_offset=-3 / threads=72 / lookahead_threads=6 / sliced_threads=0 / nr=0 / decimate=1 / interlaced=0 / bluray_compat=0 / constrained_intra=0 / bframes=3 / b_pyramid=2 / b_adapt=2 / b_bias=0 / direct=3 / weightb=1 / open_gop=0 / weightp=2 / keyint=240 / keyint_min=24 / scenecut=40 / intra_refresh=0 / rc_lookahead=60 / rc=2pass / mbtree=1 / bitrate=3456 / ratetol=1.0 / qcomp=0.60 / qpmin=0 / qpmax=69 / qpstep=4 / cplxblur=20.0 / qblur=0.5 / vbv_maxrate=62500 / vbv_bufsize=78125 / nal_hrd=none / filler=0 / ip_ratio=1.40 / aq=1:1.00
Default                                  : Yes
Forced                                   : No
Color range                              : Limited
Color primaries                          : BT.709
Transfer characteristics                 : BT.709
Matrix coefficients                      : BT.709
Statistics Tags Issue                    : mkvmerge v68.0.0.1 ('The Curtain') 64-bit 2023-11-30 15:41:14 / mkvmerge v68.0.0.1 ('The Curtain') 64-bit 2023-11-30 15:41:14 / UTC 
FromStats_BitRate                        : 3455255
FromStats_Duration                       : 01:47:00.456000000
FromStats_FrameCount                     : 153937
FromStats_StreamSize                     : 2773039358

Audio
ID                                       : 2
Format                                   : AC-3
Format/Info                              : Audio Coding 3
Mode extension                           : CM (complete main)
Format settings, Endianness              : Big
Codec ID                                 : A_AC3
Duration                                 : 1h 47mn
Bit rate mode                            : Constant
Bit rate                                 : 224 Kbps
Channel(s)                               : 2 channels
Channel positions                        : Front: L R
Sampling rate                            : 48.0 KHz
Frame rate                               : 31.250 fps (1536 spf)
Compression mode                         : Lossy
Delay relative to video                  : -5ms
Stream size                              : 171 MiB (6%)
Title                                    : Stereo
Language                                 : English
Default                                  : Yes
Forced                                   : No
Statistics Tags Issue                    : mkvmerge v68.0.0.1 ('The Curtain') 64-bit 2023-11-30 15:41:14 / mkvmerge v68.0.0.1 ('The Curtain') 64-bit 2023-11-30 15:41:14 / UTC 
FromStats_BitRate                        : 224000
FromStats_Duration                       : 01:47:00.480000000
FromStats_FrameCount                     : 200640
FromStats_StreamSize                     : 179773440

Text
ID                                       : 3
Format                                   : PGS
Muxing mode                              : zlib
Codec ID                                 : S_HDMV/PGS
Codec ID/Info                            : Picture based subtitle format used on BDs/HD-DVDs
Language                                 : English
Default                                  : No
Forced                                   : No
Statistics Tags Issue                    : mkvmerge v68.0.0.1 ('The Curtain') 64-bit 2023-11-30 15:41:14 / mkvmerge v68.0.0.1 ('The Curtain') 64-bit 2023-11-30 15:41:14 / UTC 
FromStats_BitRate                        : 28326
FromStats_Duration                       : 01:41:11.982000000
FromStats_FrameCount                     : 1922
FromStats_StreamSize                     : 21499730

Menu
00:00:00.000                             : :Chapter 1
00:13:22.009                             : :Chapter 2
00:26:57.199                             : :Chapter 3
00:39:29.700                             : :Chapter 4
00:51:36.968                             : :Chapter 5
01:06:27.858                             : :Chapter 6
01:18:08.141                             : :Chapter 7
01:34:09.227                             : :Chapter 8

Pasted: Nov 30, 2023, 4:17:35 pm
Views: 4