get paid to paste

Running Man E638 1080p WEB-DL AAC 2.0 H.264-MMR

General
Unique ID                   : 175865294679235817586374260300491193323 (0x844E6C78EC0500961B6142E8F2D6FBEB)
Complete name               : Running.Man.E638.Reborn.Spitefully.Rich.1080p.WEB-DL.H264.AAC-MMR.mkv
Format                      : Matroska
Format version              : Version 4
File size                   : 2.10 GiB
Duration                    : 1 h 27 min
Overall bit rate mode       : Variable
Overall bit rate            : 3 418 kb/s
Movie name                  : www.dwba.xyz rme638
Encoded date                : UTC 2023-01-23 09:34:55
Writing application         : mkvmerge v52.0.0 ('Secret For The Mad') 64-bit
Writing library             : libebml v1.4.1 + libmatroska v1.6.2

Video
ID                          : 1
Format                      : AVC
Format/Info                 : Advanced Video Codec
Format profile              : [email protected]
Format settings             : CABAC / 4 Ref Frames
Format settings, CABAC      : Yes
Format settings, Reference  : 4 frames
Codec ID                    : V_MPEG4/ISO/AVC
Duration                    : 1 h 27 min
Bit rate mode               : Variable
Bit rate                    : 3 318 kb/s
Maximum bit rate            : 4 500 kb/s
Width                       : 1 920 pixels
Height                      : 1 080 pixels
Display aspect ratio        : 16:9
Frame rate mode             : Variable
Frame rate                  : 29.875 FPS
Original frame rate         : 29.970 (29970/1000) FPS
Color space                 : YUV
Chroma subsampling          : 4:2:0
Bit depth                   : 8 bits
Scan type                   : Progressive
Bits/(Pixel*Frame)          : 0.054
Stream size                 : 2.04 GiB (97%)
Writing library             : VOLO1.4.1
Default                     : No
Forced                      : No

Audio
ID                          : 2
Format                      : AAC LC
Format/Info                 : Advanced Audio Codec Low Complexity
Codec ID                    : A_AAC-2
Duration                    : 1 h 27 min
Bit rate                    : 96.0 kb/s
Channel(s)                  : 2 channels
Channel layout              : L R
Sampling rate               : 48.0 kHz
Frame rate                  : 46.875 FPS (1024 SPF)
Compression mode            : Lossy
Delay relative to video     : -43 ms
Stream size                 : 60.4 MiB (3%)
Language                    : Korean
Default                     : No
Forced                      : No

Text #1
ID                          : 3
Format                      : ASS
Codec ID                    : S_TEXT/ASS
Codec ID/Info               : Advanced Sub Station Alpha
Duration                    : 1 h 27 min
Bit rate                    : 294 b/s
Count of elements           : 3328
Compression mode            : Lossless
Stream size                 : 190 KiB (0%)
Title                       : English with Annotation
Language                    : English
Default                     : No
Forced                      : No

Text #2
ID                          : 4
Format                      : ASS
Codec ID                    : S_TEXT/ASS
Codec ID/Info               : Advanced Sub Station Alpha
Duration                    : 1 h 27 min
Bit rate                    : 294 b/s
Count of elements           : 3328
Compression mode            : Lossless
Stream size                 : 190 KiB (0%)
Title                       : English with Annotation at Top
Language                    : English
Default                     : No
Forced                      : No

Text #3
ID                          : 5
Format                      : UTF-8
Codec ID                    : S_TEXT/UTF8
Codec ID/Info               : UTF-8 Plain Text
Duration                    : 1 h 27 min
Bit rate                    : 128 b/s
Count of elements           : 2540
Stream size                 : 82.7 KiB (0%)
Title                       : English
Language                    : English
Default                     : No
Forced                      : No

Text #4
ID                          : 6
Format                      : UTF-8
Codec ID                    : S_TEXT/UTF8
Codec ID/Info               : UTF-8 Plain Text
Duration                    : 1 h 27 min
Bit rate                    : 96 b/s
Count of elements           : 2864
Stream size                 : 62.2 KiB (0%)
Title                       : Simplified Chinese
Language                    : Chinese
Default                     : No
Forced                      : No

Pasted: Jan 23, 2023, 9:39:01 am
Views: 7