get paid to paste

Love of May (Wu yue zhi lian) 2004 DVDREMUX...

General
Unique ID                   : 92978686473592922358438005385618349270 (0x45F30B2C71F2808CCC56CB2C35955CD6)
Complete name               : Love of May (Wu yue zhi lian) 2004 DVDREMUX RIP.mkv
Format                      : Matroska
Format version              : Version 4
File size                   : 4.06 GiB
Duration                    : 1 h 49 min
Overall bit rate mode       : Variable
Overall bit rate            : 5 298 kb/s
Movie name                  : www.dwba.xyz
Encoded date                : UTC 2023-04-28 02:17:38
Writing application         : mkvmerge v52.0.0 ('Secret For The Mad') 64-bit
Writing library             : libebml v1.4.1 + libmatroska v1.6.2

Video
ID                          : 1
ID in the original source m : 224 (0xE0)
Format                      : MPEG Video
Format version              : Version 2
Format profile              : Main@Main
Format settings             : CustomMatrix / BVOP
Format settings, BVOP       : Yes
Format settings, Matrix     : Custom
Format settings, GOP        : M=3, N=9
Format settings, picture st : Frame
Codec ID                    : V_MPEG2
Codec ID/Info               : MPEG 1 or 2 Video
Duration                    : 1 h 49 min
Bit rate mode               : Variable
Bit rate                    : 4 459 kb/s
Maximum bit rate            : 8 000 kb/s
Width                       : 720 pixels
Height                      : 480 pixels
Display aspect ratio        : 4:3
Frame rate mode             : Constant
Frame rate                  : 29.970 (30000/1001) FPS
Standard                    : NTSC
Color space                 : YUV
Chroma subsampling          : 4:2:0
Bit depth                   : 8 bits
Scan type                   : Interlaced
Scan order                  : Top Field First
Compression mode            : Lossy
Bits/(Pixel*Frame)          : 0.430
Time code of first frame    : 01:00:00;00
Time code source            : Group of pictures header
GOP, Open/Closed            : Closed
Stream size                 : 3.42 GiB (84%)
Language                    : English
Default                     : No
Forced                      : No
Original source medium      : DVD-Video

Audio #1
ID                          : 2
ID in the original source m : 189 (0xBD)128 (0x80)
Format                      : AC-3
Format/Info                 : Audio Coding 3
Commercial name             : Dolby Digital
Codec ID                    : A_AC3
Duration                    : 1 h 49 min
Bit rate mode               : Constant
Bit rate                    : 448 kb/s
Channel(s)                  : 2 channels
Channel layout              : L R
Sampling rate               : 48.0 kHz
Frame rate                  : 31.250 FPS (1536 SPF)
Compression mode            : Lossy
Stream size                 : 352 MiB (8%)
Title                       : Stereo
Language                    : Thai
Service kind                : Complete Main
Default                     : Yes
Forced                      : No
Original source medium      : DVD-Video

Audio #2
ID                          : 3
ID in the original source m : 189 (0xBD)129 (0x81)
Format                      : AC-3
Format/Info                 : Audio Coding 3
Commercial name             : Dolby Digital
Codec ID                    : A_AC3
Duration                    : 1 h 49 min
Bit rate mode               : Constant
Bit rate                    : 384 kb/s
Channel(s)                  : 2 channels
Channel layout              : L R
Sampling rate               : 48.0 kHz
Frame rate                  : 31.250 FPS (1536 SPF)
Compression mode            : Lossy
Stream size                 : 302 MiB (7%)
Title                       : Stereo
Language                    : Chinese
Service kind                : Complete Main
Default                     : No
Forced                      : No
Original source medium      : DVD-Video

Text #1
ID                          : 4
ID in the original source m : 189 (0xBD)32 (0x20)
Format                      : VobSub
Muxing mode                 : zlib
Codec ID                    : S_VOBSUB
Codec ID/Info               : Picture based subtitle format used on DVDs
Duration                    : 1 h 46 min
Bit rate                    : 1 782 b/s
Count of elements           : 894
Stream size                 : 1.36 MiB (0%)
Language                    : Thai
Default                     : Yes
Forced                      : No
Original source medium      : DVD-Video

Text #2
ID                          : 5
ID in the original source m : 189 (0xBD)33 (0x21)
Format                      : VobSub
Muxing mode                 : zlib
Codec ID                    : S_VOBSUB
Codec ID/Info               : Picture based subtitle format used on DVDs
Duration                    : 1 h 45 min
Bit rate                    : 1 627 b/s
Count of elements           : 955
Stream size                 : 1.23 MiB (0%)
Language                    : Chinese
Default                     : No
Forced                      : No
Original source medium      : DVD-Video

Text #3
ID                          : 6
ID in the original source m : 189 (0xBD)34 (0x22)
Format                      : VobSub
Muxing mode                 : zlib
Codec ID                    : S_VOBSUB
Codec ID/Info               : Picture based subtitle format used on DVDs
Duration                    : 1 h 46 min
Bit rate                    : 1 576 b/s
Count of elements           : 908
Stream size                 : 1.21 MiB (0%)
Language                    : English
Default                     : No
Forced                      : No
Original source medium      : DVD-Video

Menu
00:00:00.066                : en:Chapter 01
00:15:17.383                : en:Chapter 02
00:27:56.541                : en:Chapter 03
00:59:07.710                : en:Chapter 04
01:13:24.166                : en:Chapter 05
01:29:36.537                : en:Chapter 06

Pasted: Apr 28, 2023, 3:52:18 am
Views: 9