get paid to paste

Decision to Leave 2022

General
Complete name               : Download-C\Decision to Leave 2022.mp4
Format                      : MPEG-4
Format profile              : Base Media
Codec ID                    : isom (qt  )
File size                   : 10.8 GiB
Duration                    : 2 h 54 min
Overall bit rate mode       : Variable
Overall bit rate            : 8 831 kb/s

Video
ID                          : 2
Format                      : AVC
Format/Info                 : Advanced Video Codec
Format profile              : Baseline@L4
Format settings             : 1 Ref Frames
Format settings, CABAC      : No
Format settings, Reference  : 1 frame
Format settings, GOP        : M=1, N=60
Codec ID                    : avc1
Codec ID/Info               : Advanced Video Coding
Duration                    : 2 h 54 min
Bit rate mode               : Variable
Bit rate                    : 8 633 kb/s
Width                       : 1 920 pixels
Height                      : 1 080 pixels
Display aspect ratio        : 16:9
Frame rate mode             : Constant
Frame rate                  : 29.970 (30000/1001) FPS
Color space                 : YUV
Chroma subsampling          : 4:2:0
Bit depth                   : 8 bits
Scan type                   : Progressive
Bits/(Pixel*Frame)          : 0.139
Stream size                 : 10.5 GiB (98%)
Language                    : English
Codec configuration box     : avcC

Audio
ID                          : 1
Format                      : AAC LC
Format/Info                 : Advanced Audio Codec Low Complexity
Codec ID                    : mp4a-40-2
Duration                    : 2 h 54 min
Bit rate mode               : Variable
Bit rate                    : 192 kb/s
Channel(s)                  : 2 channels
Channel layout              : L R
Sampling rate               : 48.0 kHz
Frame rate                  : 46.875 FPS (1024 SPF)
Compression mode            : Lossy
Stream size                 : 237 MiB (2%)
Language                    : English
Default                     : Yes
Alternate group             : 1

Pasted: Jun 12, 2023, 10:38:27 am
Views: 3