get paid to paste

The.Rebel.Princess.2021.Amazon.WEB-DL.1080p.H264.DDP-HDCTV

General
Unique ID                                : 93211598593950341446639510783971468833 (0x461FE6A0B3E6C6CDBE62DF62FDFEA621)
Complete name                            : \The.Rebel.Princess.E01.2021.Amazon.WEB-DL.1080p.H264.DDP-HDCTV.mkv
Format                                   : Matroska
Format version                           : Version 4 / Version 2
File size                                : 2.58 GiB
Duration                                 : 45mn 35s
Overall bit rate                         : 8 109 Kbps
Encoded date                             : UTC 2022-04-25 14:17:25
Writing application                      : mkvmerge v48.0.0 ('Fortress Around Your Heart') 64-bit
Writing library                          : libebml v1.4.0 + libmatroska v1.6.0

Video
ID                                       : 1
Format                                   : AVC
Format/Info                              : Advanced Video Codec
Format profile                           : High@L4
Format settings, CABAC                   : Yes
Format settings, ReFrames                : 4 frames
Codec ID                                 : V_MPEG4/ISO/AVC
Duration                                 : 45mn 35s
Bit rate mode                            : Constant
Bit rate                                 : 7 883 Kbps
Nominal bit rate                         : 10 000 Kbps
Width                                    : 1 920 pixels
Height                                   : 1 080 pixels
Display aspect ratio                     : 16:9
Frame rate mode                          : Constant
Frame rate                               : 25.000 fps
Color space                              : YUV
Chroma subsampling                       : 4:2:0
Bit depth                                : 8 bits
Scan type                                : Progressive
Bits/(Pixel*Frame)                       : 0.152
Stream size                              : 2.51 GiB (97%)
Default                                  : Yes
Forced                                   : No
Color range                              : Limited
Color primaries                          : BT.709
Transfer characteristics                 : BT.709
Matrix coefficients                      : BT.709

Audio
ID                                       : 2
Format                                   : E-AC-3
Format/Info                              : Audio Coding 3
Format settings, Endianness              : Big
Codec ID                                 : A_EAC3
Duration                                 : 45mn 35s
Bit rate mode                            : Constant
Bit rate                                 : 224 Kbps
Channel(s)                               : 2 channels
Channel positions                        : Front: L R
Sampling rate                            : 48.0 KHz
Frame rate                               : 187.500 fps (256 spf)
Compression mode                         : Lossy
Stream size                              : 73.0 MiB (3%)
Title                                    : 中文
Language                                 : Chinese
Default                                  : No
Forced                                   : No

Text
ID                                       : 3
Format                                   : UTF-8
Codec ID                                 : S_TEXT/UTF8
Codec ID/Info                            : UTF-8 Plain Text
Duration                                 : 41mn 22s
Bit rate                                 : 58 bps
Count of elements                        : 694
Stream size                              : 17.6 KiB (0%)
Title                                    : English (SDH)
Language                                 : English
Default                                  : No
Forced                                   : No

Pasted: Nov 15, 2023, 9:38:05 pm
Views: 5