get paid to paste

Bed.Rest.2022.1080p.BluRay.x264-FREEMAN\fm-bedrest.2022-1080p

General
Unique ID                                : 96042849793509550625284670062194034121 (0x48412E16D98DA85A01C50A47CB2785C9)
Complete name                            : Bed.Rest.2022.1080p.BluRay.x264-FREEMAN\fm-bedrest.2022-1080p.mkv
Format                                   : Matroska
Format version                           : Version 4 / Version 2
File size                                : 9.77 GiB
Duration                                 : 1h 30mn
Overall bit rate                         : 15.5 Mbps
Encoded date                             : UTC 2023-10-07 19:35:50
Writing application                      : mkvmerge v77.0 ('Elemental') 64-bit
Writing library                          : libebml v1.4.4 + libmatroska v1.7.1

Video
ID                                       : 1
Format                                   : AVC
Format/Info                              : Advanced Video Codec
Format profile                           : [email protected]
Format settings, CABAC                   : Yes
Format settings, ReFrames                : 4 frames
Codec ID                                 : V_MPEG4/ISO/AVC
Duration                                 : 1h 30mn
Bit rate                                 : 13.8 Mbps
Width                                    : 1 920 pixels
Height                                   : 1 036 pixels
Display aspect ratio                     : 1.85:1
Frame rate mode                          : Constant
Frame rate                               : 23.976 (24000/1001) fps
Color space                              : YUV
Chroma subsampling                       : 4:2:0
Bit depth                                : 8 bits
Scan type                                : Progressive
Bits/(Pixel*Frame)                       : 0.288
Stream size                              : 8.68 GiB (89%)
Writing library                          : x264 core 164 r3144 5a9dfdd
Encoding settings                        : cabac=1 / ref=4 / deblock=1:-3:-3 / analyse=0x3:0x133 / me=umh / subme=9 / psy=1 / psy_rd=1.00:0.00 / mixed_ref=1 / me_range=16 / chroma_me=1 / trellis=2 / 8x8dct=1 / cqm=0 / deadzone=21,11 / fast_pskip=0 / chroma_qp_offset=-2 / threads=24 / lookahead_threads=2 / sliced_threads=0 / nr=0 / decimate=1 / interlaced=0 / bluray_compat=0 / constrained_intra=0 / bframes=3 / b_pyramid=2 / b_adapt=2 / b_bias=0 / direct=3 / weightb=1 / open_gop=0 / weightp=2 / keyint=250 / keyint_min=23 / scenecut=40 / intra_refresh=0 / rc_lookahead=60 / rc=crf / mbtree=1 / crf=18.0 / qcomp=0.60 / qpmin=0 / qpmax=69 / qpstep=4 / ip_ratio=1.40 / aq=3:1.00
Default                                  : Yes
Forced                                   : No
Color range                              : Limited
Matrix coefficients                      : BT.709

Audio
ID                                       : 2
Format                                   : DTS
Format/Info                              : Digital Theater Systems
Format profile                           : MA / Core
Mode                                     : 16
Format settings, Endianness              : Big
Codec ID                                 : A_DTS
Duration                                 : 1h 30mn
Bit rate mode                            : Variable / Constant
Bit rate                                 : 1 691 Kbps / 1 509 Kbps
Channel(s)                               : 6 channels
Channel positions                        : Front: L C R, Side: L R, LFE
Sampling rate                            : 48.0 KHz
Frame rate                               : 93.750 fps (512 spf)
Bit depth                                : 16 bits
Compression mode                         : Lossless / Lossy
Stream size                              : 1.07 GiB (11%)
Language                                 : English
Default                                  : Yes
Forced                                   : No

Text #1
ID                                       : 3
Format                                   : PGS
Muxing mode                              : zlib
Codec ID                                 : S_HDMV/PGS
Codec ID/Info                            : Picture based subtitle format used on BDs/HD-DVDs
Duration                                 : 1h 29mn
Bit rate                                 : 29.7 Kbps
Count of elements                        : 2214
Stream size                              : 18.9 MiB (0%)
Language                                 : English
Default                                  : No
Forced                                   : No

Text #2
ID                                       : 4
Format                                   : PGS
Muxing mode                              : zlib
Codec ID                                 : S_HDMV/PGS
Codec ID/Info                            : Picture based subtitle format used on BDs/HD-DVDs
Duration                                 : 1h 23mn
Bit rate                                 : 24.4 Kbps
Count of elements                        : 1382
Stream size                              : 14.7 MiB (0%)
Language                                 : German
Default                                  : No
Forced                                   : No

Menu
00:00:00.000                             : en:00:00:00.000
00:05:39.714                             : en:00:05:39.714
00:11:47.999                             : en:00:11:47.999
00:19:28.584                             : en:00:19:28.584
00:27:42.369                             : en:00:27:42.369
00:36:30.146                             : en:00:36:30.146
00:43:39.575                             : en:00:43:39.575
00:51:51.233                             : en:00:51:51.233
01:04:03.923                             : en:01:04:03.923
01:11:15.229                             : en:01:11:15.229
01:21:55.911                             : en:01:21:55.911
01:25:46.141                             : en:01:25:46.141

Pasted: Oct 8, 2023, 12:24:59 pm
Views: 4