get paid to paste

Lật Mặt 5 2021 1080p WEB-DL H.264 DD+5.1-3cTWeB

General
Unique ID                   : 1635536478462423335417269677203218297 (0x13AFE2C973B5E7CA557818029795F79)
Complete name               : Lật Mặt 5 2021 1080p WEB-DL H.264 DD+5.1-3cTWeB.mkv
Format                      : Matroska
Format version              : Version 4
File size                   : 5.04 GiB
Duration                    : 1 h 49 min
Overall bit rate            : 6 580 kb/s
Movie name                  : www.dwba.xyz
Encoded date                : UTC 2023-05-12 15:39:29
Writing application         : mkvmerge v52.0.0 ('Secret For The Mad') 64-bit
Writing library             : libebml v1.4.1 + libmatroska v1.6.2
Cover                       : Yes
Attachments                 : cover.jpg

Video
ID                          : 1
Format                      : AVC
Format/Info                 : Advanced Video Codec
Format profile              : [email protected]
Format settings             : CABAC / 4 Ref Frames
Format settings, CABAC      : Yes
Format settings, Reference  : 4 frames
Codec ID                    : V_MPEG4/ISO/AVC
Duration                    : 1 h 49 min
Bit rate                    : 5 938 kb/s
Width                       : 1 920 pixels
Height                      : 806 pixels
Display aspect ratio        : 2.40:1
Frame rate mode             : Constant
Frame rate                  : 23.976 (24000/1001) FPS
Color space                 : YUV
Chroma subsampling          : 4:2:0
Bit depth                   : 8 bits
Scan type                   : Progressive
Bits/(Pixel*Frame)          : 0.160
Stream size                 : 4.55 GiB (90%)
Title                       : 3cTWeB www.dwba.xyz
Language                    : Vietnamese
Default                     : Yes
Forced                      : No
Color range                 : Limited
Color primaries             : BT.709
Transfer characteristics    : BT.709
Matrix coefficients         : BT.709

Audio
ID                          : 2
Format                      : E-AC-3
Format/Info                 : Enhanced AC-3
Commercial name             : Dolby Digital Plus
Codec ID                    : A_EAC3
Duration                    : 1 h 49 min
Bit rate mode               : Constant
Bit rate                    : 640 kb/s
Channel(s)                  : 6 channels
Channel layout              : L R C LFE Ls Rs
Sampling rate               : 48.0 kHz
Frame rate                  : 31.250 FPS (1536 SPF)
Compression mode            : Lossy
Stream size                 : 502 MiB (10%)
Title                       : 3cTWeB www.dwba.xyz
Language                    : Vietnamese
Service kind                : Complete Main
Default                     : Yes
Forced                      : No

Text
ID                          : 3
Format                      : UTF-8
Codec ID                    : S_TEXT/UTF8
Codec ID/Info               : UTF-8 Plain Text
Duration                    : 1 h 45 min
Bit rate                    : 40 b/s
Count of elements           : 1237
Stream size                 : 30.9 KiB (0%)
Title                       : English | 3cTWeB www.dwba.xyz
Language                    : English
Default                     : Yes
Forced                      : No

Pasted: May 12, 2023, 3:41:14 pm
Views: 2