get paid to paste

The Vengeful Beauty (1978)

General
Unique ID                                : 263697606242667207865515693564986566650 (0xC6624FC5D7E08E39725A957B913EA7FA)
Complete name                            : The Vengeful Beauty (1978) {imdb-tt0078456}.mkv
Format                                   : Matroska
Format version                           : Version 2
File size                                : 20.2 GiB
Duration                                 : 1 h 22 min
Overall bit rate mode                    : Variable
Overall bit rate                         : 34.9 Mb/s
Frame rate                               : 23.976 FPS
Movie name                               : The Vengeful Beauty
Encoded date                             : 2023-10-15 19:10:19 UTC
Writing application                      : MakeMKV v1.17.5 win(x64-release)
Writing library                          : libmakemkv v1.17.5 (1.3.10/1.5.2) win(x64-release)

Video
ID                                       : 1
ID in the original source medium         : 4113 (0x1011)
Format                                   : AVC
Format/Info                              : Advanced Video Codec
Format profile                           : [email protected]
Format settings                          : CABAC / 4 Ref Frames
Format settings, CABAC                   : Yes
Format settings, Reference frames        : 4 frames
Codec ID                                 : V_MPEG4/ISO/AVC
Duration                                 : 1 h 22 min
Bit rate mode                            : Constant
Bit rate                                 : 34.0 Mb/s
Width                                    : 1 920 pixels
Height                                   : 1 080 pixels
Display aspect ratio                     : 16:9
Frame rate mode                          : Constant
Frame rate                               : 23.976 (24000/1001) FPS
Color space                              : YUV
Chroma subsampling                       : 4:2:0
Bit depth                                : 8 bits
Scan type                                : Progressive
Bits/(Pixel*Frame)                       : 0.684
Time code of first frame                 : 01:00:00:0000000000
Stream size                              : 19.1 GiB (95%)
Language                                 : English
Default                                  : No
Forced                                   : No
Original source medium                   : Blu-ray

Audio #1
ID                                       : 2
ID in the original source medium         : 4352 (0x1100)
Format                                   : DTS XLL
Format/Info                              : Digital Theater Systems
Commercial name                          : DTS-HD Master Audio
Codec ID                                 : A_DTS
Duration                                 : 1 h 22 min
Bit rate mode                            : Variable
Bit rate                                 : 1 576 kb/s
Channel(s)                               : 2 channels
Channel layout                           : L R
Sampling rate                            : 48.0 kHz
Frame rate                               : 93.750 FPS (512 SPF)
Bit depth                                : 24 bits
Compression mode                         : Lossless
Stream size                              : 931 MiB (5%)
Title                                    : Mandarin HD Stereo
Language                                 : Chinese
Default                                  : Yes
Forced                                   : No
Original source medium                   : Blu-ray

Audio #2
ID                                       : 3
ID in the original source medium         : 4353 (0x1101)
Format                                   : AC-3
Format/Info                              : Audio Coding 3
Commercial name                          : Dolby Digital
Codec ID                                 : A_AC3
Duration                                 : 1 h 22 min
Bit rate mode                            : Constant
Bit rate                                 : 192 kb/s
Channel(s)                               : 2 channels
Channel layout                           : L R
Sampling rate                            : 48.0 kHz
Frame rate                               : 31.250 FPS (1536 SPF)
Compression mode                         : Lossy
Stream size                              : 113 MiB (1%)
Title                                    : David West Commentary
Language                                 : English
Service kind                             : Complete Main
Default                                  : No
Forced                                   : No
Original source medium                   : Blu-ray

Text
ID                                       : 4
ID in the original source medium         : 4608 (0x1200)
Format                                   : PGS
Codec ID                                 : S_HDMV/PGS
Codec ID/Info                            : Picture based subtitle format used on BDs/HD-DVDs
Duration                                 : 1 h 22 min
Bit rate                                 : 22.6 kb/s
Frame rate                               : 0.229 FPS
Count of elements                        : 1129
Stream size                              : 13.3 MiB (0%)
Title                                    : English Subtitles
Language                                 : English
Default                                  : No
Forced                                   : No
Original source medium                   : Blu-ray

Menu
00:00:00.000                             : en:Chapter 01
00:09:47.503                             : en:Chapter 02
00:19:49.563                             : en:Chapter 03
00:32:42.001                             : en:Chapter 04
00:40:52.616                             : en:Chapter 05
00:53:00.552                             : en:Chapter 06
01:02:40.506                             : en:Chapter 07
01:14:54.198                             : en:Chapter 08
01:22:34.115                             : en:Chapter 09

Pasted: Oct 17, 2023, 3:34:06 am
Views: 27