get paid to paste

Death Duel (1977) {imdb-tt0076660}

General
Unique ID                                : 123008468343816236826638499896250366844 (0x5C8A91BB0037A0E0E28256A22D487B7C)
Complete name                            : Death Duel (1977) {imdb-tt0076660}.mkv
Format                                   : Matroska
Format version                           : Version 2
File size                                : 21.6 GiB
Duration                                 : 1h 28mn
Overall bit rate                         : 35.0 Mbps
Movie name                               : Death Duel
Encoded date                             : UTC 2023-10-15 20:07:53
Writing application                      : MakeMKV v1.17.5 win(x64-release)
Writing library                          : libmakemkv v1.17.5 (1.3.10/1.5.2) win(x64-release)
Original source medium                   : Blu-ray

Video
ID                                       : 1
ID in the original source medium         : 4113 (0x1011)
Format                                   : AVC
Format/Info                              : Advanced Video Codec
Format profile                           : [email protected]
Format settings, CABAC                   : Yes
Format settings, ReFrames                : 4 frames
Codec ID                                 : V_MPEG4/ISO/AVC
Duration                                 : 1h 28mn
Bit rate mode                            : Constant
Bit rate                                 : 34.0 Mbps
Width                                    : 1 920 pixels
Height                                   : 1 080 pixels
Display aspect ratio                     : 16:9
Frame rate mode                          : Constant
Frame rate                               : 23.976 (24000/1001) fps
Color space                              : YUV
Chroma subsampling                       : 4:2:0
Bit depth                                : 8 bits
Scan type                                : Progressive
Bits/(Pixel*Frame)                       : 0.684
Stream size                              : 20.4 GiB (95%)
Language                                 : English
Default                                  : No
Forced                                   : No

Audio #1
ID                                       : 2
ID in the original source medium         : 4352 (0x1100)
Format                                   : DTS
Format/Info                              : Digital Theater Systems
Format profile                           : MA / Core
Mode                                     : 16
Format settings, Endianness              : Big
Codec ID                                 : A_DTS
Duration                                 : 1h 28mn
Bit rate mode                            : Variable / Constant
Bit rate                                 : 1 581 Kbps / 1 509 Kbps
Channel(s)                               : 2 channels
Channel positions                        : Front: L R
Sampling rate                            : 48.0 KHz
Frame rate                               : 93.750 fps (512 spf)
Bit depth                                : 24 bits
Compression mode                         : Lossless / Lossy
Stream size                              : 998 MiB (5%)
Title                                    : Mandarin HD Stereo
Language                                 : Chinese
Default                                  : Yes
Forced                                   : No

Audio #2
ID                                       : 3
ID in the original source medium         : 4353 (0x1101)
Format                                   : AC-3
Format/Info                              : Audio Coding 3
Mode extension                           : CM (complete main)
Format settings, Endianness              : Big
Codec ID                                 : A_AC3
Duration                                 : 1h 28mn
Bit rate mode                            : Constant
Bit rate                                 : 192 Kbps
Channel(s)                               : 2 channels
Channel positions                        : Front: L R
Sampling rate                            : 48.0 KHz
Frame rate                               : 31.250 fps (1536 spf)
Compression mode                         : Lossy
Stream size                              : 121 MiB (1%)
Title                                    : James Mudge Commentary
Language                                 : English
Default                                  : No
Forced                                   : No

Text
ID                                       : 4
ID in the original source medium         : 4608 (0x1200)
Format                                   : PGS
Codec ID                                 : S_HDMV/PGS
Codec ID/Info                            : Picture based subtitle format used on BDs/HD-DVDs
Duration                                 : 1h 26mn
Bit rate                                 : 31.1 Kbps
Count of elements                        : 1622
Stream size                              : 19.3 MiB (0%)
Title                                    : English Subtitles
Language                                 : English
Default                                  : No
Forced                                   : No

Menu
00:00:00.000                             : en:Chapter 01
00:08:27.715                             : en:Chapter 02
00:17:03.147                             : en:Chapter 03
00:27:51.169                             : en:Chapter 04
00:41:42.875                             : en:Chapter 05
00:49:39.643                             : en:Chapter 06
01:01:11.125                             : en:Chapter 07
01:09:45.431                             : en:Chapter 08
01:17:36.860                             : en:Chapter 09
01:28:17.458                             : en:Chapter 10

Pasted: Oct 17, 2023, 7:38:22 am
Views: 11