get paid to paste

Return.to.Seoul.2022.1080p.BluRay.REMUX.AVC.DTS-HD.MA.5.1-SEGAL

General
Unique ID                                : 310935567943648913182453202071102078119 (0xE9EC03197EB7104E4190E5DDC53ABCA7)
Complete name                            : Return.to.Seoul.2022.1080p.BluRay.REMUX.AVC.DTS-HD.MA.5.1-SEGAL.mkv
Format                                   : Matroska
Format version                           : Version 4 / Version 2
File size                                : 24.8 GiB
Duration                                 : 1h 59mn
Overall bit rate mode                    : Variable
Overall bit rate                         : 29.7 Mbps
Encoded date                             : UTC 2023-12-01 10:01:02
Writing application                      : mkvmerge v80.0 ('Roundabout') 64-bit
Writing library                          : libebml v1.4.4 + libmatroska v1.7.1

Video
ID                                       : 1
Format                                   : AVC
Format/Info                              : Advanced Video Codec
Format profile                           : [email protected]
Format settings, CABAC                   : Yes
Format settings, ReFrames                : 4 frames
Codec ID                                 : V_MPEG4/ISO/AVC
Duration                                 : 1h 59mn
Bit rate mode                            : Variable
Bit rate                                 : 26.4 Mbps
Maximum bit rate                         : 35.6 Mbps
Width                                    : 1 920 pixels
Height                                   : 1 080 pixels
Display aspect ratio                     : 16:9
Frame rate mode                          : Constant
Frame rate                               : 23.976 (24000/1001) fps
Color space                              : YUV
Chroma subsampling                       : 4:2:0
Bit depth                                : 8 bits
Scan type                                : Progressive
Bits/(Pixel*Frame)                       : 0.532
Stream size                              : 22.1 GiB (89%)
Title                                    : MPEG-4 AVC Video / 26444 kbps / 1080p / 23.976 fps / 16:9 / High Profile 4.1
Language                                 : zxx
Default                                  : Yes
Forced                                   : No

Audio
ID                                       : 2
Format                                   : DTS
Format/Info                              : Digital Theater Systems
Format profile                           : MA / Core
Mode                                     : 16
Format settings, Endianness              : Big
Codec ID                                 : A_DTS
Duration                                 : 1h 59mn
Bit rate mode                            : Variable / Constant
Bit rate                                 : 3 199 Kbps / 1 509 Kbps
Channel(s)                               : 6 channels
Channel positions                        : Front: L C R, Side: L R, LFE
Sampling rate                            : 48.0 KHz
Frame rate                               : 93.750 fps (512 spf)
Bit depth                                : 24 bits
Compression mode                         : Lossless / Lossy
Stream size                              : 2.67 GiB (11%)
Title                                    : French / DTS-HD Master Audio / 5.1 / 48 kHz /  3199 kbps / 24-bit (DTS Core: 5.1 / 48 kHz /  1509 kbps / 24-bit)
Language                                 : French
Default                                  : Yes
Forced                                   : No

Text #1
ID                                       : 3
Format                                   : PGS
Muxing mode                              : zlib
Codec ID                                 : S_HDMV/PGS
Codec ID/Info                            : Picture based subtitle format used on BDs/HD-DVDs
Duration                                 : 1h 54mn
Bit rate                                 : 16.5 Kbps
Count of elements                        : 1876
Stream size                              : 13.5 MiB (0%)
Title                                    : English
Language                                 : English
Default                                  : Yes
Forced                                   : No

Text #2
ID                                       : 4
Format                                   : PGS
Muxing mode                              : zlib
Codec ID                                 : S_HDMV/PGS
Codec ID/Info                            : Picture based subtitle format used on BDs/HD-DVDs
Duration                                 : 1h 58mn
Bit rate                                 : 20.0 Kbps
Count of elements                        : 2172
Stream size                              : 17.0 MiB (0%)
Title                                    : English (HI)
Language                                 : English
Default                                  : No
Forced                                   : No

Text #3
ID                                       : 5
Format                                   : PGS
Muxing mode                              : zlib
Codec ID                                 : S_HDMV/PGS
Codec ID/Info                            : Picture based subtitle format used on BDs/HD-DVDs
Duration                                 : 1h 50mn
Bit rate                                 : 19.1 Kbps
Count of elements                        : 1864
Stream size                              : 15.1 MiB (0%)
Title                                    : French
Language                                 : French
Default                                  : No
Forced                                   : No

Text #4
ID                                       : 6
Format                                   : PGS
Muxing mode                              : zlib
Codec ID                                 : S_HDMV/PGS
Codec ID/Info                            : Picture based subtitle format used on BDs/HD-DVDs
Duration                                 : 1h 37mn
Bit rate                                 : 790 bps
Count of elements                        : 58
Stream size                              : 564 KiB (0%)
Title                                    : French (English Translation)
Language                                 : French
Default                                  : No
Forced                                   : No

Text #5
ID                                       : 7
Format                                   : PGS
Muxing mode                              : zlib
Codec ID                                 : S_HDMV/PGS
Codec ID/Info                            : Picture based subtitle format used on BDs/HD-DVDs
Duration                                 : 1h 58mn
Bit rate                                 : 15.8 Kbps
Count of elements                        : 1906
Stream size                              : 13.3 MiB (0%)
Title                                    : Spanish
Language                                 : Spanish
Default                                  : No
Forced                                   : No

Menu
00:00:00.000                             : :Chapter 01
00:08:58.496                             : :Chapter 02
00:13:06.953                             : :Chapter 03
00:20:36.277                             : :Chapter 04
00:28:39.676                             : :Chapter 05
00:35:42.265                             : :Chapter 06
00:39:59.647                             : :Chapter 07
00:46:56.856                             : :Chapter 08
00:53:43.011                             : :Chapter 09
01:00:31.294                             : :Chapter 10
01:09:08.144                             : :Chapter 11
01:18:18.986                             : :Chapter 12
01:24:39.700                             : :Chapter 13
01:32:13.027                             : :Chapter 14
01:40:17.178                             : :Chapter 15
01:47:48.962                             : :Chapter 16
01:54:49.257                             : :Chapter 17
01:59:22.364                             : :Chapter 18

Pasted: Dec 1, 2023, 1:57:24 pm
Views: 10