get paid to paste

Lat Mat 3 2018 1080p WEB-DL H.264 DD+5.1-3cTWeB

General
Unique ID                   : 32940820725531959380175943578832258446 (0x18C82BDA8010FEE4DFE8B919219EC58E)
Complete name               : Lat Mat 3 2018 1080p WEB-DL H.264 DD+5.1-3cTWeB.mkv
Format                      : Matroska
Format version              : Version 4
File size                   : 4.71 GiB
Duration                    : 1 h 42 min
Overall bit rate            : 6 586 kb/s
Movie name                  : www.dwba.xyz
Encoded date                : UTC 2023-05-11 09:26:53
Writing application         : mkvmerge v52.0.0 ('Secret For The Mad') 64-bit
Writing library             : libebml v1.4.1 + libmatroska v1.6.2 / Lavf59.37.100
Cover                       : Yes
Attachments                 : cover.jpg

Video
ID                          : 1
Format                      : AVC
Format/Info                 : Advanced Video Codec
Format profile              : [email protected]
Format settings             : CABAC / 4 Ref Frames
Format settings, CABAC      : Yes
Format settings, Reference  : 4 frames
Codec ID                    : V_MPEG4/ISO/AVC
Duration                    : 1 h 42 min
Bit rate                    : 5 943 kb/s
Width                       : 1 920 pixels
Height                      : 808 pixels
Display aspect ratio        : 2.40:1
Frame rate mode             : Constant
Frame rate                  : 24.000 FPS
Color space                 : YUV
Chroma subsampling          : 4:2:0
Bit depth                   : 8 bits
Scan type                   : Progressive
Bits/(Pixel*Frame)          : 0.160
Stream size                 : 4.25 GiB (90%)
Title                       : www.dwba.xyz
Language                    : Vietnamese
Default                     : Yes
Forced                      : No
Color range                 : Limited
Color primaries             : BT.709
Transfer characteristics    : BT.709
Matrix coefficients         : BT.709

Audio
ID                          : 2
Format                      : E-AC-3
Format/Info                 : Enhanced AC-3
Commercial name             : Dolby Digital Plus
Codec ID                    : A_EAC3
Duration                    : 1 h 42 min
Bit rate mode               : Constant
Bit rate                    : 640 kb/s
Channel(s)                  : 6 channels
Channel layout              : L R C LFE Ls Rs
Sampling rate               : 48.0 kHz
Frame rate                  : 31.250 FPS (1536 SPF)
Compression mode            : Lossy
Stream size                 : 469 MiB (10%)
Title                       : www.dwba.xyz
Language                    : Vietnamese
Service kind                : Complete Main
Default                     : Yes
Forced                      : No

Pasted: May 11, 2023, 9:30:48 am
Views: 5